Торрент файл
скачать торрент магнет ссылка Добавлен: 03 мар 2018, 15:51
Размер: 12.77 ГБ
Сидеров: 0
Личеров: 0
Статус: (salma3)
Автор

СообщениеДобавлено: 03 мар 2018, 15:51 

Не в сети
Супермодератор
Аватара пользователя
Дата регистрации:
15 фев 2012, 16:44
Возраст: 28
Спасибо: 7223 / 2147
Сообщения: 67785
Год выхода: 2007
Жанр: боевик, комедия
Режиссер: Эдгар Райт / Edgar Wright

В ролях: Саймон Пегг, Мартин Фриман, Билл Найи, Джо Корниш, Эрик Мэйсон, Билли Уайтлоу, Ник Фрост, Питер Уайт

О фильме:
Главный лондонский полицейский, констебль Николас Эйнджел переведен из города в тихий сельский городок Сэндфорд. Он пытается привыкнуть к этой мирной, и на первый взгляд лишенной преступности жизни, а также к туповатому напарнику Дэнни Баттерману.
Однако серия ужасных происшествий потрясает городок, заставляя Эйнджела убедиться в том, что Сэндфорд — совсем не такой, каким кажется на первый взгляд. Мечты Дэнни о бурной, взрывоопасной, полной стрельбы и погонями жизни становятся все более и более реальными. Настало время для провинциальных полицейских вершить правосудие больших городов!

Страна: Франция, Великобритания
Продолжительность: 02:00:52
Перевод: Дублированный, авторский

Файл
Кодек: х.264
Качество: BDRip 1080p
Видео: 1920x816, 23.976 fps, 9200 kbps
Звук:
Russian: DTS / 5.1 / 768 kbps - Профессиональный (дублированный)
Ukrainian: AC3 / 5.1 / 448 kbps - Профессиональный (дублированный)
Russian: DTS / 5.1 / 1509 kbps - Чадов
Russian: AC3 / 5.1 / 640 kbps - Чадов
Russian: AC3 / 5.1 / 640 kbps - Гаврилов
Russian: AC3 / 5.1 / 640 kbps - Немахов
Russian: AC3 / 5.1 / 640 kbps - Королев
English: AC3 / 5.1 / 640 kbps
Субтитры: Русские, английские

Unique ID : 139804720375816435440259402094975580871 (0x692D68E4514096A8C34D5B6AC2C2FAC7)
Complete name : G:RIP_stimcoHot FuzzHot Fuzz.2007.x264.FHDRip.1080p.stimco.mkv
Format : Matroska
Format version : Version 4 / Version 2
File size : 12.8 GiB
Duration : 2 h 0 min
Overall bit rate : 15.1 Mb/s
Movie name : =Hot Fuzz=
Encoded date : UTC 2018-03-03 10:04:06
Writing application : mkvmerge v21.0.0 ('Tardigrades Will Inherit The Earth') 64-bit
Writing library : libebml v1.3.5 + libmatroska v1.4.8

Video
ID : 1
Format : AVC
Format/Info : Advanced Video Codec
Format profile : High@L4.1
Format settings : CABAC / 5 Ref Frames
Format settings, CABAC : Yes
Format settings, ReFrames : 5 frames
Codec ID : V_MPEG4/ISO/AVC
Duration : 2 h 0 min
Bit rate : 9 200 kb/s
Width : 1 920 pixels
Height : 816 pixels
Display aspect ratio : 2.35:1
Frame rate mode : Constant
Frame rate : 23.976 (24000/1001) FPS
Color space : YUV
Chroma subsampling : 4:2:0
Bit depth : 8 bits
Scan type : Progressive
Bits/(Pixel*Frame) : 0.245
Stream size : 7.76 GiB (61%)
Title : AVC_1080p [9200 kbps]
Writing library : x264 core 155 r2901 7d0ff22
Encoding settings : cabac=1 / ref=5 / deblock=1:-3:-3 / analyse=0x3:0x133 / me=umh / subme=10 / psy=1 / psy_rd=1.00:0.15 / mixed_ref=1 / me_range=40 / chroma_me=1 / trellis=2 / 8x8dct=1 / cqm=0 / deadzone=21,11 / fast_pskip=0 / chroma_qp_offset=-2 / threads=6 / lookahead_threads=1 / sliced_threads=0 / nr=0 / decimate=0 / interlaced=0 / bluray_compat=0 / constrained_intra=0 / bframes=8 / b_pyramid=2 / b_adapt=2 / b_bias=0 / direct=1 / weightb=1 / open_gop=0 / weightp=2 / keyint=240 / keyint_min=23 / scenecut=40 / intra_refresh=0 / rc_lookahead=65 / rc=2pass / mbtree=1 / bitrate=9200 / ratetol=1.0 / qcomp=0.65 / qpmin=0 / qpmax=51 / qpstep=4 / cplxblur=20.0 / qblur=0.5 / vbv_maxrate=62500 / vbv_bufsize=78125 / nal_hrd=none / filler=0 / ip_ratio=1.30 / aq=1:0.75
Language : English
Default : Yes
Forced : No

Audio #1
ID : 2
Format : DTS
Format/Info : Digital Theater Systems
Codec ID : A_DTS
Duration : 2 h 0 min
Bit rate mode : Constant
Bit rate : 768 kb/s
Channel(s) : 6 channels
Channel positions : Front: L C R, Side: L R, LFE
Sampling rate : 48.0 kHz
Frame rate : 93.750 FPS (512 SPF)
Bit depth : 24 bits
Compression mode : Lossy
Stream size : 664 MiB (5%)
Title : Dub_R5
Language : Russian
Default : No
Forced : No

Audio #2
ID : 3
Format : AC-3
Format/Info : Audio Coding 3
Codec ID : A_AC3
Duration : 2 h 0 min
Bit rate mode : Constant
Bit rate : 448 kb/s
Channel(s) : 6 channels
Channel positions : Front: L C R, Side: L R, LFE
Sampling rate : 48.0 kHz
Frame rate : 31.250 FPS (1536 SPF)
Bit depth : 16 bits
Compression mode : Lossy
Stream size : 387 MiB (3%)
Title : Dub_R5
Language : Ukrainian
Service kind : Complete Main
Default : No
Forced : No

Audio #3
ID : 4
Format : DTS
Format/Info : Digital Theater Systems
Codec ID : A_DTS
Duration : 2 h 0 min
Bit rate mode : Constant
Bit rate : 1 510 kb/s
Channel(s) : 6 channels
Channel positions : Front: L C R, Side: L R, LFE
Sampling rate : 48.0 kHz
Frame rate : 93.750 FPS (512 SPF)
Bit depth : 24 bits
Compression mode : Lossy
Stream size : 1.27 GiB (10%)
Title : AVO М.Чадов [DTS 1509 kbps]
Language : Russian
Default : Yes
Forced : No

Audio #4
ID : 5
Format : AC-3
Format/Info : Audio Coding 3
Codec ID : A_AC3
Duration : 2 h 0 min
Bit rate mode : Constant
Bit rate : 640 kb/s
Channel(s) : 6 channels
Channel positions : Front: L C R, Side: L R, LFE
Sampling rate : 48.0 kHz
Frame rate : 31.250 FPS (1536 SPF)
Bit depth : 16 bits
Compression mode : Lossy
Stream size : 553 MiB (4%)
Title : RUS AVO М.Чадов
Language : Russian
Service kind : Complete Main
Default : No
Forced : No

Audio #5
ID : 6
Format : AC-3
Format/Info : Audio Coding 3
Codec ID : A_AC3
Duration : 2 h 0 min
Bit rate mode : Constant
Bit rate : 640 kb/s
Channel(s) : 6 channels
Channel positions : Front: L C R, Side: L R, LFE
Sampling rate : 48.0 kHz
Frame rate : 31.250 FPS (1536 SPF)
Bit depth : 16 bits
Compression mode : Lossy
Stream size : 553 MiB (4%)
Title : AVO А.Гаврилов [ранний]
Language : Russian
Service kind : Complete Main
Default : No
Forced : No

Audio #6
ID : 7
Format : AC-3
Format/Info : Audio Coding 3
Codec ID : A_AC3
Duration : 2 h 0 min
Bit rate mode : Constant
Bit rate : 640 kb/s
Channel(s) : 6 channels
Channel positions : Front: L C R, Side: L R, LFE
Sampling rate : 48.0 kHz
Frame rate : 31.250 FPS (1536 SPF)
Bit depth : 16 bits
Compression mode : Lossy
Stream size : 553 MiB (4%)
Title : AVO Ю.Немахов
Language : Russian
Service kind : Complete Main
Default : No
Forced : No

Audio #7
ID : 8
Format : AC-3
Format/Info : Audio Coding 3
Codec ID : A_AC3
Duration : 2 h 0 min
Bit rate mode : Constant
Bit rate : 640 kb/s
Channel(s) : 6 channels
Channel positions : Front: L C R, Side: L R, LFE
Sampling rate : 48.0 kHz
Frame rate : 31.250 FPS (1536 SPF)
Bit depth : 16 bits
Compression mode : Lossy
Stream size : 553 MiB (4%)
Title : AVO В.Королёв
Language : Russian
Service kind : Complete Main
Default : No
Forced : No

Audio #8
ID : 9
Format : AC-3
Format/Info : Audio Coding 3
Codec ID : A_AC3
Duration : 2 h 0 min
Bit rate mode : Constant
Bit rate : 640 kb/s
Channel(s) : 6 channels
Channel positions : Front: L C R, Side: L R, LFE
Sampling rate : 48.0 kHz
Frame rate : 31.250 FPS (1536 SPF)
Bit depth : 16 bits
Compression mode : Lossy
Stream size : 553 MiB (4%)
Language : English
Service kind : Complete Main
Default : No
Forced : No

Text #1
ID : 10
Format : UTF-8
Codec ID : S_TEXT/UTF8
Codec ID/Info : UTF-8 Plain Text
Duration : 1 h 53 min
Bit rate : 2 b/s
Count of elements : 41
Stream size : 1.95 KiB (0%)
Title : forced
Language : Russian
Default : Yes
Forced : No

Text #2
ID : 11
Format : UTF-8
Codec ID : S_TEXT/UTF8
Codec ID/Info : UTF-8 Plain Text
Duration : 1 h 54 min
Bit rate : 109 b/s
Count of elements : 1565
Stream size : 91.6 KiB (0%)
Title : full
Language : Russian
Default : No
Forced : No

Text #3
ID : 12
Format : UTF-8
Codec ID : S_TEXT/UTF8
Codec ID/Info : UTF-8 Plain Text
Duration : 1 h 54 min
Bit rate : 120 b/s
Count of elements : 1551
Stream size : 102 KiB (0%)
Title : full [А.Кузнецова]
Language : Russian
Default : No
Forced : No

Text #4
ID : 13
Format : UTF-8
Codec ID : S_TEXT/UTF8
Codec ID/Info : UTF-8 Plain Text
Duration : 1 h 55 min
Bit rate : 74 b/s
Count of elements : 1599
Stream size : 63.1 KiB (0%)
Title : SDH
Language : English
Default : No
Forced : No

Menu
00:00:00.000 : en:Extreme Service
00:02:26.646 : en:Administrative Decision
00:05:23.615 : en:Hard Goodbye
00:07:16.144 : en:Tough Distance
00:12:10.355 : en:Deep Evening
00:14:07.638 : en:Sudden Morning
00:21:39.590 : en:Villiage Force
00:25:48.005 : en:Avian Breakout
00:28:46.683 : en:Maximum Running
00:32:08.844 : en:Speed Duty
00:35:28.001 : en:Sham Dram
00:39:07.971 : en:Double Death
00:42:12.196 : en:Rural Weapon
00:44:56.235 : en:Furious Binge
00:49:26.505 : en:Man Heat
00:54:58.629 : en:Evil Fete
01:01:45.285 : en:Mild Intrigue
01:09:24.619 : en:Smug Suspect
01:16:58.906 : en:Broken Spirit
01:19:15.125 : en:Dark Gathering
01:28:59.543 : en:Deadly Services
01:31:40.453 : en:Avenging Angel
01:41:14.193 : en:Total Bullets
01:45:30.741 : en:Terminal Screech
01:50:49.351 : en:Final Chapter
01:52:02.174 : en:Final Chapter Part II
01:53:54.786 : en:Final Chapter: The Final Chapter
01:55:15.033 : en:The End


_________________
Проголосуй за трекер Открытый торрент трекер - RUS-MEDIA.ORG

Проголосуй Открытый торрент трекер - RUS-MEDIA.ORG


Вернуться к началу
 Профиль Отправить личное сообщение  
 
   Похожие торренты   Автор   Торрент   Размер 
В этой теме нет новых непрочитанных сообщений. Крутые парни / Крутые ребята / Крутые мужики / Tough Guys [криминал, комедия, 1986] WEB-DL 720p, Dub+Mvo+Sub

salma3

4 | 1

3.36 ГБ

В этой теме нет новых непрочитанных сообщений. Крутые меры / Bastille Day [Боевик, драма, 2016] BDRip 1080p, Dub [Лицензия]

salma3

174 | 80

10.86 ГБ

В этой теме нет новых непрочитанных сообщений. Крутые стволы / Mean Guns [боевик, триллер, криминал, 1997] BDRip 1080p, Mvo+Sub

salma3

43 | 8

12.33 ГБ

В этой теме нет новых непрочитанных сообщений. Крутые мужики / Tough Guys [комедия, 1986] BDRip 1080p, Mvo

salma3

10 | 4

16.6 ГБ

В этой теме нет новых непрочитанных сообщений. Крутые чуваки на Байю / Bad Asses on the Bayou (Крэйг Мосс) [боевик, комедия, 2015] WEB-DL 1080p, Dub

Dracon

243 | 5

3.61 ГБ

В этой теме нет новых непрочитанных сообщений. Недотёпы / Fuzz [боевик, триллер, драма, комедия, 1972] HDRip, Mvo+Avo

salma3

78 | 26

1.45 ГБ

В этой теме нет новых непрочитанных сообщений. Типа копы / Let's Be Cops [Комедия, криминал, 2014] Blu-Ray 1080p, Dub

salma3

12 | 11

39.75 ГБ


Начать новую тему Ответить на тему  [ 1 сообщение ] 




Для Мосгорсуда, Роскомнадзора и рекламодателей:: mosgorsud-torrent[собачка]yandex.ru
cron