Торрент файл
скачать торрент магнет ссылка Добавлен: 02 мар 2018, 11:57
Размер: 34.15 ГБ
Сидеров: 0
Личеров: 0
Статус: (salma3)
Автор

СообщениеДобавлено: 02 мар 2018, 11:57 

Не в сети
Супермодератор
Аватара пользователя
Дата регистрации:
15 фев 2012, 16:44
Возраст: 28
Спасибо: 7061 / 2147
Сообщения: 59252
Год выхода: 2004
Жанр: Драма, военный, история, биография
Режиссер: Оливер Хиршбигель

В ролях: Бруно Ганц, Александра Мария Лара, Коринна Харфух, Ульрих Маттес, Юлиане Кёлер, Хайно Ферх, Кристиан Беркель, Маттиас Хабих, Томас Кречманн, Михаэль Мендль

О фильме: Апрель 1945 года. Советские войска сжимают кольцо вокруг столицы Третьего рейха — Берлина. Перед лицом неминуемого поражения нацистская верхушка ищет спасение в секретном бункере, не желая покидать обезумевшего фюрера. Отвергнув предложения о побеге, Гитлер утверждает, что победа близка. Он приказывает сравнять Германию с землей и обсуждает детали своего самоубийства. Последнее убежище палачей пронизано агонией и страхом. И лишь те, кто выйдут живыми из этого бетонного ада, смогут поведать историю о последних минутах жизни и мрачном падении диктатора и его режима.



Страна: Германия, Австрия, Италия
Продолжительность: 02:35:11
Перевод: профессиональный (многоголосый), авторский (одноголосый)
Субтитры: русские, английские, немецкие

Формат: MKV
Качество: BDRemux 1080p
Видео: MPEG-4 AVC Video / 25641 kbps / 1920x1080 / 23,976 fps
Звук:
Аудио 1: Russian / DTS-HD Master Audio / 5.1 / 48 kHz / 2092 kbps - Многоголосый (R5)
Аудио 2: Russian / DTS Audio / 5.1 / 48 kHz / 768 kbps - Многоголосый (D2Lab)
Аудио 3: Russian / Dolby Digital Audio / 5.1 / 48 kHz / 448 kbps - Авторский (Рябов)
Аудио 4: Ukrainian / Dolby Digital Audio / 5.1 / 48 kHz / 448 kbps - Многоголосый (Цікава ідея)
Аудио 5: German / DTS-HD Master Audio / 5.1 / 48 kHz / 2101 kbps - Оригинал (Немецкий)

Format : Matroska
Format version : Version 2
File size : 34.1 GiB
Duration : 2 h 35 min
Overall bit rate mode : Variable
Overall bit rate : 31.5 Mb/s
Movie name : Der Untergang (2004) BDRemux 1080p
Encoded date : UTC 2018-03-02 06:55:18
Writing application : mkvmerge v4.9.1 ('Ich will') сборка от Jul 11 2011 23:53:15
Writing library : libebml v1.2.1 + libmatroska v1.1.1

Video
ID : 1
Format : AVC
Format/Info : Advanced Video Codec
Format profile : High@L4.1
Format settings, CABAC : Yes
Format settings, RefFrames : 4 frames
Codec ID : V_MPEG4/ISO/AVC
Duration : 2 h 35 min
Bit rate mode : Variable
Maximum bit rate : 34.0 Mb/s
Width : 1 920 pixels
Height : 1 080 pixels
Display aspect ratio : 16:9
Frame rate mode : Constant
Frame rate : 23.976 (24000/1001) FPS
Standard : NTSC
Color space : YUV
Chroma subsampling : 4:2:0
Bit depth : 8 bits
Scan type : Progressive
Title : Бункер (2004)
Language : German
Default : Yes
Forced : No
Color range : Limited
Color primaries : BT.709
Transfer characteristics : BT.709
Matrix coefficients : BT.709

Audio #1
ID : 2
Format : DTS
Format/Info : Digital Theater Systems
Format profile : MA / Core
Mode : 16
Format settings, Endianness : Big
Codec ID : A_DTS
Duration : 2 h 35 min
Bit rate mode : Variable / Constant
Bit rate : Unknown / 1 509 kb/s
Channel(s) : 6 channels
Channel positions : Front: L C R, Side: L R, LFE
Sampling rate : 48.0 kHz
Frame rate : 93.750 FPS (512 SPF)
Bit depth : 16 bits
Compression mode : Lossless / Lossy
Title : Многоголосый закадровый - R5
Language : Russian
Default : Yes
Forced : No

Audio #2
ID : 3
Format : DTS
Format/Info : Digital Theater Systems
Mode : 16
Format settings, Endianness : Big
Codec ID : A_DTS
Duration : 2 h 35 min
Bit rate mode : Constant
Bit rate : 768 kb/s
Channel(s) : 6 channels
Channel positions : Front: L C R, Side: L R, LFE
Sampling rate : 48.0 kHz
Frame rate : 93.750 FPS (512 SPF)
Bit depth : 24 bits
Compression mode : Lossy
Stream size : 852 MiB (2%)
Title : Многоголосый закадровый - D2Lab
Language : Russian
Default : No
Forced : No

Audio #3
ID : 4
Format : AC-3
Format/Info : Audio Coding 3
Format settings, Endianness : Big
Codec ID : A_AC3
Duration : 2 h 35 min
Bit rate mode : Constant
Bit rate : 448 kb/s
Channel(s) : 6 channels
Channel positions : Front: L C R, Side: L R, LFE
Sampling rate : 48.0 kHz
Frame rate : 31.250 FPS (1536 SPF)
Bit depth : 16 bits
Compression mode : Lossy
Stream size : 497 MiB (1%)
Title : Авторский - С. Рябов
Language : Russian
Service kind : Complete Main
Default : No
Forced : No

Audio #4
ID : 5
Format : AC-3
Format/Info : Audio Coding 3
Format settings, Endianness : Big
Codec ID : A_AC3
Duration : 2 h 35 min
Bit rate mode : Constant
Bit rate : 448 kb/s
Channel(s) : 6 channels
Channel positions : Front: L C R, Side: L R, LFE
Sampling rate : 48.0 kHz
Frame rate : 31.250 FPS (1536 SPF)
Bit depth : 16 bits
Compression mode : Lossy
Stream size : 497 MiB (1%)
Title : Многоголосый закадровый - Цікава ідея
Language : Ukrainian
Service kind : Complete Main
Default : No
Forced : No

Audio #5
ID : 6
Format : DTS
Format/Info : Digital Theater Systems
Format profile : MA / Core
Mode : 16
Format settings, Endianness : Big
Codec ID : A_DTS
Duration : 2 h 35 min
Bit rate mode : Variable / Constant
Bit rate : Unknown / 1 509 kb/s
Channel(s) : 6 channels
Channel positions : Front: L C R, Side: L R, LFE
Sampling rate : 48.0 kHz
Frame rate : 93.750 FPS (512 SPF)
Bit depth : 16 bits
Compression mode : Lossless / Lossy
Title : Оригинал
Language : German
Default : No
Forced : No

Text #1
ID : 7
Format : UTF-8
Codec ID : S_TEXT/UTF8
Codec ID/Info : UTF-8 Plain Text
Language : Russian
Default : Yes
Forced : No

Text #2
ID : 8
Format : UTF-8
Codec ID : S_TEXT/UTF8
Codec ID/Info : UTF-8 Plain Text
Language : English
Default : No
Forced : No

Text #3
ID : 9
Format : UTF-8
Codec ID : S_TEXT/UTF8
Codec ID/Info : UTF-8 Plain Text
Language : German
Default : No
Forced : No

Menu
00:00:00.000 : :Chapter 01
00:06:22.591 : :Chapter 02
00:11:42.577 : :Chapter 03
00:18:40.036 : :Chapter 04
00:24:33.972 : :Chapter 05
00:36:09.918 : :Chapter 06
00:51:39.263 : :Chapter 07
01:01:29.060 : :Chapter 08
01:13:00.667 : :Chapter 09
01:20:28.615 : :Chapter 10
01:28:20.295 : :Chapter 11
01:33:48.872 : :Chapter 12
01:43:37.878 : :Chapter 13
01:50:17.736 : :Chapter 14
01:57:35.131 : :Chapter 15
02:06:10.938 : :Chapter 16
02:14:44.118 : :Chapter 17
02:21:37.072 : :Chapter 18
02:28:37.950 : :Chapter 19


_________________
Проголосуй за трекер Открытый торрент трекер - RUS-MEDIA.ORG

Проголосуй Открытый торрент трекер - RUS-MEDIA.ORG


Вернуться к началу
 Профиль Отправить личное сообщение  
 
   Похожие торренты   Автор   Торрент   Размер 
В этой теме нет новых непрочитанных сообщений. Бункер / Downfall / Der Untergang [драма, военный, биография, 2004] BDRip 1080p, Mvo

salma3

0 | 2

23.78 ГБ

В этой теме нет новых непрочитанных сообщений. Свободный штат Джонса / Free State of Jones [Боевик, драма, военный, биография, история, 2016] BDRemux 1080p, Dvo

salma3

16 | 19

29.93 ГБ

В этой теме нет новых непрочитанных сообщений. Храброе сердце / Braveheart [Драма, военный, биография, история, 1995] BDRemux, 5Mvo+6Avo+Dvo+Sub

salma3

6 | 8

65.64 ГБ

В этой теме нет новых непрочитанных сообщений. Основатель / The Founder [Драма, биография, история, 2016] BDRemux 1080p, Mvo

salma3

0 | 1

30.61 ГБ

В этой теме нет новых непрочитанных сообщений. В центре внимания / Spotlight [триллер, драма, биография, история, 2015] BDRemux 1080p, MVO

salma3

26 | 7

33.2 ГБ

В этой теме нет новых непрочитанных сообщений. Виктория и Абдул / Victoria & Abdul [Драма, биография, история, 2017] BDRemux 1080p, Dub [Лицензия]

salma3

0 | 2

27.26 ГБ

В этой теме нет новых непрочитанных сообщений. Кровавая графиня - Батори / Bathory [фэнтези, драма, биография, история, 2008] BDRemux 1080p, Mvo+Sub

salma3

33 | 7

27.41 ГБ


Начать новую тему Ответить на тему  [ 1 сообщение ] 




Для Мосгорсуда, Роскомнадзора и рекламодателей:: mosgorsud-torrent[собачка]yandex.ru
cron