Торрент файл
скачать торрент магнет ссылка Добавлен: 27 фев 2018, 14:30
Размер: 35.17 ГБ
Сидеров: 0
Личеров: 0
Статус: (salma3)
Автор

СообщениеДобавлено: 27 фев 2018, 14:30 

Не в сети
Супермодератор
Аватара пользователя
Дата регистрации:
15 фев 2012, 16:44
Возраст: 30
Спасибо: 8185 / 2148
Сообщения: 95725
Год выхода: 1965
Жанр: Комедия, приключения, семейный
Режиссер: Кен Эннакин

В ролях: Стюарт Уитман, Сара Майлз, Джеймс Фокс, Альберто Сорди, Роберт Морли, Герт Фрёбе, Жан-Пьер Кассель, Ирина Демик, Эрик Сайкс, Ред Скелтон, Терри-Томас, Бенни Хилл, Юдзиро Исихара, Флора Робсон, Карл Михаэль Фоглер, Сэм Уонамейкер, Эрик Баркер, Морис Денэм, Фред Эмни, Гордон Джексон,

О фильме:
Одна из самых знаменитых комедий в истории кино с участием главных комических актеров Европы шестидесятых, блестяще обыгравших национальные особенности своих персонажей. Зрители увидят полную широкоэкранную версию легендарной картины – на 20 минут длиннее советской прокатной копии. Англия, 1910 год, начало эры авиации. Лорд Ронсли объявляет о проведении первых международных авиагонок по маршруту: Лондон – Париж. Влюбленный в его дочь Ричард Мэйс должен доказать превосходство англичан не только на морях, но и в воздухе. Однако, летчики со всего света – жуликоватый английский лорд, индюкоподобный немецкий полковник, любвеобильный француз, ковбойского вида американец и многодетный итальянский граф – все они на своих неуклюжих аэропланах так же готовы побороться за главный приз – 10000 фунтов стерлингов...



Страна: Великобритания
Продолжительность: 02:18:02
Перевод: Дублированный, профессиональный многоголосый, авторский

Файл
Кодек: h.264
Качество: BDRemux 1080p
Видео: MPEG-4 AVC, 31.7 Mбит/с, 1920x1080, 23,976 кадр/с
Звук:
1. Русский (AC3, 2 ch, 192 Кбит/с) / дублированный (Мосфильм)
2. Русский (AC3, 5 ch, 448 Кбит/с) / профессиональный многоголосый (Cinema Prestige)
3. Русский (AC3, 2 ch, 192 Кбит/с) / авторский (А. Гаврилов)
4. Русский (AC3, 2 ch, 192 Кбит/с) / авторский (А. Михалев)
5. Русский (AC3, 2 ch, 192 Кбит/с) / авторский (Л. Володарский)
6. Аглийский (DTS-HD MA, 5 ch, 3527 Кбит/с)
Субтитры: Русские (форсированные, полные), английские

Семпл

Огромная благодарность за Blu-ray disc (custom) 1080p Murya
Multmir (Widescreen) - за оцифровку записи ТВ-трансляции фильма с недостающими фрагментами дубляжа
Urasik - за перевод с французского языка отсутствующей фразы Пьера Дюбуа, попадающей в дубляже на переход с части на часть
Ивану, большому поклоннику этой киноленты - за предоставленные им недостающие фрагменты перевода А. Гаврилова
General
Unique ID : 268263651436832865043562090797383688228 (0xC9D1B32E90CF4FE2D75C47199DFE2024)
Complete name : D:uTorrentVozdushnye.prikljuchenija.1965.BDRemux.1080p.MediaClub.mkv
Format : Matroska
Format version : Version 4 / Version 2
File size : 35.2 GiB
Duration : 2 h 18 min
Overall bit rate mode : Variable
Overall bit rate : 36.5 Mb/s
Encoded date : UTC 2018-02-23 20:44:07
Writing application : mkvmerge v19.0.0 ('Brave Captain') 64-bit
Writing library : libebml v1.3.5 + libmatroska v1.4.8
Cover : Yes
Attachments : cover.jpg

Video
ID : 1
Format : AVC
Format/Info : Advanced Video Codec
Format profile : High@L4.1
Format settings : CABAC / 4 Ref Frames
Format settings, CABAC : Yes
Format settings, RefFrames : 4 frames
Codec ID : V_MPEG4/ISO/AVC
Duration : 2 h 18 min
Bit rate mode : Variable
Bit rate : 31.7 Mb/s
Maximum bit rate : 38.0 Mb/s
Width : 1 920 pixels
Height : 1 080 pixels
Display aspect ratio : 16:9
Frame rate mode : Constant
Frame rate : 23.976 (24000/1001) FPS
Color space : YUV
Chroma subsampling : 4:2:0
Bit depth : 8 bits
Scan type : Progressive
Bits/(Pixel*Frame) : 0.638
Stream size : 30.6 GiB (87%)
Title : BDRemux by Silverok
Default : Yes
Forced : No

Audio #1
ID : 2
Format : AC-3
Format/Info : Audio Coding 3
Codec ID : A_AC3
Duration : 2 h 18 min
Bit rate mode : Constant
Bit rate : 192 kb/s
Channel(s) : 2 channels
Channel positions : Front: L R
Sampling rate : 48.0 kHz
Frame rate : 31.250 FPS (1536 SPF)
Bit depth : 16 bits
Compression mode : Lossy
Stream size : 190 MiB (1%)
Title : профессиональный (дублированный), "Мосфильм"
Language : Russian
Service kind : Complete Main
Default : Yes
Forced : No

Audio #2
ID : 3
Format : AC-3
Format/Info : Audio Coding 3
Codec ID : A_AC3
Duration : 2 h 18 min
Bit rate mode : Constant
Bit rate : 448 kb/s
Channel(s) : 5 channels
Channel positions : Front: L C R, Side: L R
Sampling rate : 48.0 kHz
Frame rate : 31.250 FPS (1536 SPF)
Bit depth : 16 bits
Compression mode : Lossy
Stream size : 442 MiB (1%)
Title : профессиональный (многоголосый закадровый), "Cinema Prestige"
Language : Russian
Service kind : Complete Main
Default : No
Forced : No

Audio #3
ID : 4
Format : AC-3
Format/Info : Audio Coding 3
Codec ID : A_AC3
Duration : 2 h 18 min
Bit rate mode : Constant
Bit rate : 192 kb/s
Channel(s) : 2 channels
Channel positions : Front: L R
Sampling rate : 48.0 kHz
Frame rate : 31.250 FPS (1536 SPF)
Bit depth : 16 bits
Compression mode : Lossy
Stream size : 190 MiB (1%)
Title : авторский (одноголосый закадровый), Андрей Гаврилов
Language : Russian
Service kind : Complete Main
Default : No
Forced : No

Audio #4
ID : 5
Format : AC-3
Format/Info : Audio Coding 3
Codec ID : A_AC3
Duration : 2 h 18 min
Bit rate mode : Constant
Bit rate : 192 kb/s
Channel(s) : 2 channels
Channel positions : Front: L R
Sampling rate : 48.0 kHz
Frame rate : 31.250 FPS (1536 SPF)
Bit depth : 16 bits
Compression mode : Lossy
Stream size : 190 MiB (1%)
Title : авторский (одноголосый закадровый), Алексей Михалев
Service kind : Complete Main
Default : No
Forced : No

Audio #5
ID : 6
Format : AC-3
Format/Info : Audio Coding 3
Codec ID : A_AC3
Duration : 2 h 18 min
Bit rate mode : Constant
Bit rate : 192 kb/s
Channel(s) : 2 channels
Channel positions : Front: L R
Sampling rate : 48.0 kHz
Frame rate : 31.250 FPS (1536 SPF)
Bit depth : 16 bits
Compression mode : Lossy
Stream size : 190 MiB (1%)
Title : авторский (одноголосый закадровый), Леонид Володарский
Language : Russian
Service kind : Complete Main
Default : No
Forced : No

Audio #6
ID : 7
Format : DTS
Format/Info : Digital Theater Systems
Format profile : MA / Core
Codec ID : A_DTS
Duration : 2 h 18 min
Bit rate mode : Variable / Constant
Bit rate : 3 527 kb/s / 1 509 kb/s
Channel(s) : 5 channels
Channel positions : Front: L C R, Side: L R
Sampling rate : 48.0 kHz
Frame rate : 93.750 FPS (512 SPF)
Bit depth : 24 bits
Compression mode : Lossless / Lossy
Stream size : 3.40 GiB (10%)
Language : English
Default : No
Forced : No

Text #1
ID : 8
Format : UTF-8
Codec ID : S_TEXT/UTF8
Codec ID/Info : UTF-8 Plain Text
Duration : 2 h 17 min
Bit rate : 4 b/s
Count of elements : 50
Stream size : 4.07 KiB (0%)
Title : Forced
Language : Russian
Default : Yes
Forced : Yes

Text #2
ID : 9
Format : UTF-8
Codec ID : S_TEXT/UTF8
Codec ID/Info : UTF-8 Plain Text
Duration : 2 h 17 min
Bit rate : 77 b/s
Count of elements : 1345
Stream size : 77.9 KiB (0%)
Title : Full
Language : Russian
Default : No
Forced : No

Text #3
ID : 10
Format : UTF-8
Codec ID : S_TEXT/UTF8
Codec ID/Info : UTF-8 Plain Text
Duration : 2 h 17 min
Bit rate : 54 b/s
Count of elements : 1548
Stream size : 54.8 KiB (0%)
Title : Full
Language : English
Default : No
Forced : No

Menu
00:00:00.000 : en:
00:10:05.730 : en:
00:24:34.014 : en:
00:38:03.197 : en:
00:46:45.552 : en:
00:54:25.553 : en:
01:06:36.409 : en:
01:25:35.046 : en:
01:36:30.034 : en:
01:50:51.728 : en:
02:03:52.258 : en:
02:15:35.127 : en:
02:18:02.065 : en:


Релиз от: | Silverok


_________________
Проголосуй за трекер Открытый торрент трекер - RUS-MEDIA.ORG

Проголосуй Открытый торрент трекер - RUS-MEDIA.ORG


Скачать книги и аудио книги через торрент


Вернуться к началу
 Профиль Отправить личное сообщение  
 
   Похожие торренты   Автор   Торрент   Размер 
В этой теме нет новых непрочитанных сообщений. Великолепная семёрка / The Magnificent Seven [Боевик, вестерн, приключения, 2016] BDRemux 1080p, Dub

salma3

0 | 0

34.01 ГБ

В этой теме нет новых непрочитанных сообщений. Безумный спецназ / The Men Who Stare at Goats [Комедия, приключения, экранизация, 2009] BDRemux 1080p, Dub

salma3

0 | 0

24.48 ГБ

В этой теме нет новых непрочитанных сообщений. Люди в черном: Интернэшнл / Men in Black International [Фантастика, боевик, комедия, приключения, 2019] BDRemux 1080p, Dub [Лицензия]

K15

12 | 10

23.7 ГБ

В этой теме нет новых непрочитанных сообщений. Великолепная семерка / The Magnificent Seven [Боевик, вестерн, приключения, 2016] UHD BDRemux 2160p, Dub [4K] [Лицензия]

salma3

18 | 27

54.9 ГБ

В этой теме нет новых непрочитанных сообщений. Большие гонки / The Great Race [Комедия, приключения, семейный, 1965] HDTVRip-AVC, Dub

salma3

0 | 0

4.37 ГБ

В этой теме нет новых непрочитанных сообщений. Лорд Джим / Lord Jim [драма, приключения, 1965] BDRemux 1080p, Mvo

salma3

0 | 0

20.13 ГБ

В этой теме нет новых непрочитанных сообщений. Большие гонки / The Great Race [Мелодрама, комедия, приключения, 1965] BDRip 1080p, Dub

salma3

21 | 23

12.6 ГБ


Начать новую тему Ответить на тему  [ 1 сообщение ] 




Для Мосгорсуда, Роскомнадзора и рекламодателей:: mosgorsud-torrent[собачка]yandex.ru
cron