COVID-19 - Последняя информация о коронавирусе на сайте Минздрава




Торрент файл
скачать торрент магнет ссылка Добавлен: 27 фев 2018, 12:19
Размер: 6.98 ГБ
Сидеров: 0
Личеров: 0
Статус: (salma3)
Автор

СообщениеДобавлено: 27 фев 2018, 12:19 

Не в сети
Супермодератор
Аватара пользователя
Дата регистрации:
15 фев 2012, 16:44
Возраст: 30
Спасибо: 8263 / 2148
Сообщения: 96287
Год выхода: 2014
Жанр: фантастика, боевик, триллер
Режиссер: Брайан Сингер

В ролях: Хью Джекман, Иэн МакКеллен, Патрик Стюарт, Холли Берри, Майкл Фассбендер, Джеймс МакЭвой, Анна Пакуин, Эллен Пейдж, Шон Эшмор, Дженнифер Лоуренс, Николас Холт, Питер Динклэйдж, Омар Си, Бинбин Фань

О фильме:
В недалёком будущем мутанты близки к истреблению роботами-охотниками на мутантов Стражами. Единственная надежда для мутантов выжить — предотвратить череду роковых событий, приведших к появлению Стражей. С помощью своих способностей, Китти Прайд перемещает сознание Росомахи в его молодое тело в 1973 год. В прошлом всё оказывается не так радужно: молодой Профессор Икс окончательно разочарован в своих идеях, Магнето содержится в тюрьме глубоко под землёй, а человечество не знает как реагировать на широкое появление мутантов…



Страна: США, Великобритания
Продолжительность: 02:28:45
Перевод: Профессиональный дублированный, одноголосый

Файл
Кодек: HEVC x265 10bit
Качество: BDRip-HEVC 1080p
Видео: 1920x800, 23.976 кадр/сек, 5563 Кбит/сек, (Main 10@L5@High) 10bit
Звук:
Аудио1: Русская, AC3 384 Кбит/сек, 6 канала(ов),16bit 48,0 КГц Дубляж iTunes
Аудио2: Русская, AC3 384 Кбит/сек, 6 канала(ов),16bit 48,0 КГц AVO Живов
Аудио3: English, AC3 384 Кбит/сек, 6 канала(ов),16bit 48,0 КГц
Субтитры: Русские (форсированные, полные), English
Навигация по главам: Есть

General
Unique ID : 90710912917508132393535855432583478155 (0x443E494E0A5CBA4C2707CF168D1DFB8B)
Complete name : F:HEVCX-Men. Days of Future Past [Rogue Cut] (2014) BDRip 1080p [HEVC] 10Bit.mkv
Format : Matroska
Format version : Version 4 / Version 2
File size : 6.98 GiB
Duration : 2 h 28 min
Overall bit rate : 6 717 kb/s
Movie name : X-Men: Days of Future Past [Rogue Cut] (2014)_rip_by_Cthulhu
Encoded date : UTC 2018-02-26 14:24:32
Writing application : mkvmerge v21.0.0 ('Tardigrades Will Inherit The Earth') 64-bit
Writing library : libebml v1.3.5 + libmatroska v1.4.8
Cover : Yes
Attachments : cover1.jpg

Video
ID : 1
Format : HEVC
Format/Info : High Efficiency Video Coding
Format profile : Main 10@L5@High
Codec ID : V_MPEGH/ISO/HEVC
Duration : 2 h 28 min
Bit rate : 5 563 kb/s
Width : 1 920 pixels
Height : 800 pixels
Display aspect ratio : 2.40:1
Frame rate mode : Constant
Frame rate : 23.976 (24000/1001) FPS
Color space : YUV
Chroma subsampling : 4:2:0
Bit depth : 10 bits
Bits/(Pixel*Frame) : 0.151
Stream size : 5.78 GiB (83%)
Writing library : x265 2.6+40-36ab263cc891:[Windows][GCC 7.3.0][64 bit] 10bit
Encoding settings : cpuid=1050111 / frame-threads=5 / numa-pools=4 / wpp / no-pmode / no-pme / no-psnr / no-ssim / log-level=3 / input-csp=1 / input-res=1920x800 / interlace=0 / total-frames=0 / level-idc=50 / high-tier=1 / uhd-bd=0 / ref=5 / allow-non-conformance / no-repeat-headers / annexb / no-aud / no-hrd / info / hash=0 / no-temporal-layers / open-gop / min-keyint=24 / keyint=240 / gop-lookahead=0 / bframes=10 / b-adapt=2 / b-pyramid / bframe-bias=0 / rc-lookahead=40 / lookahead-slices=5 / scenecut=40 / radl=0 / no-intra-refresh / ctu=64 / min-cu-size=8 / no-rect / no-amp / max-tu-size=32 / tu-inter-depth=3 / tu-intra-depth=3 / limit-tu=0 / rdoq-level=1 / dynamic-rd=0.00 / no-ssim-rd / signhide / no-tskip / nr-intra=0 / nr-inter=0 / no-constrained-intra / no-strong-intra-smoothing / max-merge=3 / limit-refs=3 / no-limit-modes / me=3 / subme=7 / merange=57 / temporal-mvp / weightp / weightb / no-analyze-src-pics / deblock=-3:-3 / no-sao / no-sao-non-deblock / rd=4 / no-early-skip / rskip / no-fast-intra / no-tskip-fast / no-cu-lossless / no-b-intra / no-splitrd-skip / rdpenalty=0 / psy-rd=2.00 / psy-rdoq=0.00 / no-rd-refine / no-lossless / cbqpoffs=0 / crqpoffs=0 / rc=crf / crf=18.0 / qcomp=0.60 / qpstep=4 / stats-write=0 / stats-read=0 / vbv-maxrate=50000 / vbv-bufsize=35714 / vbv-init=0.9 / crf-max=0.0 / crf-min=0.0 / ipratio=1.40 / pbratio=1.30 / aq-mode=1 / aq-strength=1.00 / cutree / zone-count=0 / no-strict-cbr / qg-size=32 / no-rc-grain / qpmax=69 / qpmin=0 / no-const-vbv / sar=1 / overscan=0 / videoformat=5 / range=0 / colorprim=2 / transfer=2 / colormatrix=2 / chromaloc=0 / display-window=0 / max-cll=0,0 / min-luma=0 / max-luma=1023 / log2-max-poc-lsb=8 / vui-timing-info / vui-hrd-info / slices=1 / no-opt-qp-pps / no-opt-ref-list-length-pps / no-multi-pass-opt-rps / scenecut-bias=0.05 / no-opt-cu-delta-qp / no-aq-motion / no-hdr / no-hdr-opt / no-dhdr10-opt / analysis-reuse-level=5 / scale-factor=0 / refine-intra=0 / refine-inter=0 / refine-mv=0 / no-limit-sao / ctu-info=0 / no-lowpass-dct / refine-mv-type=0 / copy-pic=1
Language : English
Default : Yes
Forced : No
Color range : Full

Audio #1
ID : 2
Format : AC-3
Format/Info : Audio Coding 3
Format settings, Endianness : Big
Codec ID : A_AC3
Duration : 2 h 28 min
Bit rate mode : Constant
Bit rate : 384 kb/s
Channel(s) : 6 channels
Channel positions : Front: L C R, Side: L R, LFE
Sampling rate : 48.0 kHz
Frame rate : 31.250 FPS (1536 SPF)
Bit depth : 16 bits
Compression mode : Lossy
Stream size : 409 MiB (6%)
Title : DUB (iTunes)
Language : Russian
Service kind : Complete Main
Default : Yes
Forced : No

Audio #2
ID : 3
Format : AC-3
Format/Info : Audio Coding 3
Format settings, Endianness : Big
Codec ID : A_AC3
Duration : 2 h 28 min
Bit rate mode : Constant
Bit rate : 384 kb/s
Channel(s) : 6 channels
Channel positions : Front: L C R, Side: L R, LFE
Sampling rate : 48.0 kHz
Frame rate : 31.250 FPS (1536 SPF)
Bit depth : 16 bits
Compression mode : Lossy
Stream size : 409 MiB (6%)
Title : AVO (Живов)
Language : Russian
Service kind : Complete Main
Default : No
Forced : No

Audio #3
ID : 4
Format : AC-3
Format/Info : Audio Coding 3
Format settings, Endianness : Big
Codec ID : A_AC3
Duration : 2 h 28 min
Bit rate mode : Constant
Bit rate : 384 kb/s
Channel(s) : 6 channels
Channel positions : Front: L C R, Side: L R, LFE
Sampling rate : 48.0 kHz
Frame rate : 31.250 FPS (1536 SPF)
Bit depth : 16 bits
Compression mode : Lossy
Stream size : 409 MiB (6%)
Language : English
Service kind : Complete Main
Default : No
Forced : No

Text #1
ID : 5
Format : UTF-8
Codec ID : S_TEXT/UTF8
Codec ID/Info : UTF-8 Plain Text
Duration : 1 h 12 min
Bit rate : 2 b/s
Count of elements : 30
Stream size : 1.23 KiB (0%)
Title : Rus forced
Language : Russian
Default : Yes
Forced : Yes

Text #2
ID : 6
Format : UTF-8
Codec ID : S_TEXT/UTF8
Codec ID/Info : UTF-8 Plain Text
Duration : 2 h 18 min
Bit rate : 75 b/s
Count of elements : 1428
Stream size : 77.1 KiB (0%)
Title : Rus full
Language : Russian
Default : No
Forced : No

Text #3
ID : 7
Format : UTF-8
Codec ID : S_TEXT/UTF8
Codec ID/Info : UTF-8 Plain Text
Duration : 2 h 18 min
Bit rate : 45 b/s
Count of elements : 1582
Stream size : 45.8 KiB (0%)
Language : English
Default : No
Forced : No

Menu
00:00:00.000 : :Глава 1
00:03:33.336 : :Глава 2
00:08:04.733 : :Глава 3
00:10:34.216 : :Глава 4
00:15:11.408 : :Глава 5
00:18:44.248 : :Глава 6
00:22:43.528 : :Глава 7
00:24:38.768 : :Глава 8
00:29:05.615 : :Глава 9
00:33:03.439 : :Глава 10
00:37:11.896 : :Глава 11
00:38:49.827 : :Глава 12
00:41:06.922 : :Глава 13
00:43:50.335 : :Глава 14
00:50:05.376 : :Глава 15
00:52:07.081 : :Глава 16
00:55:11.391 : :Глава 17
00:57:56.347 : :Глава 18
01:01:04.659 : :Глава 19
01:04:01.420 : :Глава 20
01:06:39.829 : :Глава 21
01:10:22.801 : :Глава 22
01:13:00.457 : :Глава 23
01:16:28.332 : :Глава 24
01:18:48.720 : :Глава 25
01:20:44.587 : :Глава 26
01:22:46.961 : :Глава 27
01:28:07.573 : :Глава 28
01:31:19.055 : :Глава 29
01:33:50.957 : :Глава 30
01:39:22.372 : :Глава 31
01:42:10.287 : :Глава 32
01:44:32.015 : :Глава 33
01:49:13.546 : :Глава 34
01:51:00.862 : :Глава 35
01:54:54.301 : :Глава 36
01:59:15.939 : :Глава 37
02:02:13.742 : :Глава 38
02:04:30.502 : :Глава 39
02:08:16.229 : :Глава 40
02:13:27.582 : :Глава 41
02:16:57.250 : :Глава 42
02:19:19.808 : :Глава 43
02:27:34.011 : :Глава 44
02:28:45.457 : :Глава 45




Релиз от: Cthulhu


_________________
Проголосуй за трекер Открытый торрент трекер - RUS-MEDIA.ORG

Проголосуй Открытый торрент трекер - RUS-MEDIA.ORG


Скачать книги и аудио книги через торрент


Вернуться к началу
 Профиль Отправить личное сообщение  
 
   Похожие торренты   Автор   Торрент   Размер 
В этой теме нет новых непрочитанных сообщений. Люди Икс: Дни минувшего будущего / X-Men: Days of Future Past [фантастика, боевик, триллер, 2014] WEBRip 1080p. Dub [Open Matte]

salma3

0 | 0

7.39 ГБ

В этой теме нет новых непрочитанных сообщений. Люди Икс: Последняя битва / X-Men: The Last Stand [фантастика, боевик, триллер, 2006] BDRip-HEVC 1080p, Dub

salma3

0 | 1

6.75 ГБ

В этой теме нет новых непрочитанных сообщений. Люди Икс: Начало. Росомаха / X-Men Origins: Wolverine [фантастика, боевик, триллер, 2009] BDRip-HEVC 1080p, Dub

salma3

0 | 0

5.49 ГБ

В этой теме нет новых непрочитанных сообщений. Люди Икс 2 / X2 [фантастика, боевик, триллер, 2003] BDRip-HEVC 1080p, Dub

salma3

0 | 0

8.72 ГБ

В этой теме нет новых непрочитанных сообщений. Люди Икс: Коллекция / X-Men: Collection [фантастика, боевик, приключения, 2000-2011] BDRip 1080p, Dub

salma3

0 | 0

30.8 ГБ

В этой теме нет новых непрочитанных сообщений. Люди Икс: Апокалипсис / X-Men: Apocalypse [Фантастика, Боевик, Приключения, 2016] BDRip 1080p, Dub | [Лицензия]

NTL

4 | 0

7.75 ГБ

В этой теме нет новых непрочитанных сообщений. Люди в черном 2 / Men in Black II [Фантастика, боевик, комедия, 2002] BDRip-HEVC 1080p, Dub

salma3

0 | 0

6.1 ГБ


Начать новую тему Ответить на тему  [ 1 сообщение ] 




Для Мосгорсуда, Роскомнадзора и рекламодателей:: rstracker[собака]yandex.ru
cron