Торрент файл
скачать торрент магнет ссылка Добавлен: 25 фев 2018, 13:36
Размер: 34.53 ГБ
Сидеров: 0
Личеров: 0
Статус: (salma3)
Автор

СообщениеДобавлено: 25 фев 2018, 13:36 

Не в сети
Супермодератор
Аватара пользователя
Дата регистрации:
15 фев 2012, 16:44
Возраст: 29
Спасибо: 7377 / 2147
Сообщения: 75732
Год выхода: 2011
Жанр: Фантастика, боевик, триллер
Режиссер: Руперт Уайатт

В ролях: Джеймс Франко, Фрида Пинто, Джон Литгоу, Брайан Кокс, Том Фелтон, Дэвид Ойелоуо, Тайлер Лэбин, Джэми Харрис, Дэвид Хьюлетт, Тай Олссон, Мэдисон Белл, Макена Джой, Шон Тайсон, Тэмми Хуи, Руфус Дорси, Энтони МакРей, Трэйси Спиридакос, Тимоти Веббер, Робин Нилсен, Моника Мастельер, Элизабет Вайнштейн

О фильме:
Экранизация книги Пьера Буля «Планета обезьян». Молодой ученый испытывает на обезьянах новое лекарство от болезни Альцгеймера. У препарата обнаруживается удивительный побочный эффект, он повышает в несколько раз интеллект приматов.



Страна: США
Продолжительность: 01:44:56
Перевод: Дублированный, профессиональный многоголосый, авторский

Файл
Кодек: MPEG-4 AVC
Качество: BDRemux 1080p
Видео: 27975 Кбит/с, 1920x1080, 23.976 кадр/с
Аудио 1: Русский DTS-HD MA, 6 ch, 3983 Кбит/с - Дубляж (Sergesha)
Аудио 2: Русский DTS, 6 ch, 768 Кбит/с - Дубляж
Аудио 3: Русский DTS-HD MA, 6 ch, 4019 Кбит/с - Профессиональный многоголосый (Омикрон)
Аудио 4: Русский DTS-HD MA, 6 ch, 4018 Кбит/с - Авторский (Горчаков)
Аудио 5: Русский DTS-HD MA, 6 ch, 4024 Кбит/с - Авторский (Живов)
Аудио 6: Украинский AC3, 6 ch, 448 Кбит/с - Дубляж
Аудио 7: Английский DTS-HD MA, 6 ch, 4008 Кбит/с - Оригинал
Субтитры: Русские, английские

Общее
Уникальный идентификатор : 245301255149555076514547798734511996873 (0xB88B4DA306AB80A3AB89C386F446FFC9)
Полное имя : D:\РЕМУКС!!!!!\Восстание планеты обезьянBDRemux.mkv
Формат : Matroska
Версия формата : Version 4 / Version 2
Размер файла : 34,5 Гбайт
Продолжительность : 1 ч. 44 м.
Режим общего битрейта : Переменный
Общий поток : 47,1 Мбит/сек
Название фильма : Восстание планеты обезьян.BDRemux.thx:SPOMOPS
Дата кодирования : UTC 2018-02-24 08:14:32
Программа кодирования : mkvmerge v8.3.0 ('Over the Horizon') 64bit
Библиотека кодирования : libebml v1.3.1 + libmatroska v1.4.2

Видео
Идентификатор : 1
Формат : AVC
Формат/Информация : Advanced Video Codec
Профиль формата : High@L4.1
Настройки формата : CABAC / 4 Ref Frames
Параметр CABAC формата : Да
Параметр RefFrames формата : 4 кадра
Идентификатор кодека : V_MPEG4/ISO/AVC
Продолжительность : 1 ч. 44 м.
Вид битрейта : Переменный
Битрейт : 25,8 Мбит/сек
Максимальный битрейт : 33,0 Мбит/сек
Ширина : 1920 пикселей
Высота : 1080 пикселей
Соотношение сторон : 16:9
Режим частоты кадров : Постоянный
Частота кадров : 23,976 (24000/1001) кадра/сек
Цветовое пространство : YUV
Субдискретизация насыщенности : 4:2:0
Битовая глубина : 8 бит
Тип развёртки : Прогрессивная
Бит/(Пиксели*Кадры) : 0.519
Размер потока : 18,9 Гбайт (55%)
Заголовок : MPEG-4 AVC, ~25975 kbps
Язык : English
Default : Нет
Forced : Нет

Аудио #1
Идентификатор : 2
Формат : DTS
Формат/Информация : Digital Theater Systems
Профиль формата : MA / Core
Идентификатор кодека : A_DTS
Продолжительность : 1 ч. 44 м.
Вид битрейта : Переменный / Постоянный
Битрейт : 3983 Кбит/сек / 1509 Кбит/сек
Каналы : 6 каналов
Расположение каналов : Front: L C R, Side: L R, LFE
Частота : 48,0 КГц
Частота кадров : 93,750 кадра/сек (512 SPF)
Битовая глубина : 24 бит
Метод сжатия : Без потерь / Lossy
Размер потока : 2,92 Гбайт (8%)
Заголовок : Русский DTS-HD MA - Дубляж
Язык : Russian
Default : Да
Forced : Нет

Аудио #2
Идентификатор : 3
Формат : DTS
Формат/Информация : Digital Theater Systems
Идентификатор кодека : A_DTS
Продолжительность : 1 ч. 44 м.
Вид битрейта : Постоянный
Битрейт : 768 Кбит/сек
Каналы : 6 каналов
Расположение каналов : Front: L C R, Side: L R, LFE
Частота : 48,0 КГц
Частота кадров : 93,750 кадра/сек (512 SPF)
Битовая глубина : 24 бит
Метод сжатия : С потерями
Размер потока : 576 Мбайт (2%)
Заголовок : Русский DTS - Дубляж CEE
Язык : Russian
Default : Нет
Forced : Нет

Аудио #3
Идентификатор : 4
Формат : DTS
Формат/Информация : Digital Theater Systems
Профиль формата : MA / Core
Идентификатор кодека : A_DTS
Продолжительность : 1 ч. 44 м.
Вид битрейта : Переменный / Постоянный
Битрейт : 4019 Кбит/сек / 1509 Кбит/сек
Каналы : 6 каналов
Расположение каналов : Front: L C R, Side: L R, LFE
Частота : 48,0 КГц
Частота кадров : 93,750 кадра/сек (512 SPF)
Битовая глубина : 24 бит
Метод сжатия : Без потерь / Lossy
Размер потока : 2,95 Гбайт (9%)
Заголовок : Русский DTS-HD MA - ПМ (Омикрон)
Язык : Russian
Default : Нет
Forced : Нет

Аудио #4
Идентификатор : 5
Формат : DTS
Формат/Информация : Digital Theater Systems
Профиль формата : MA / Core
Идентификатор кодека : A_DTS
Продолжительность : 1 ч. 44 м.
Вид битрейта : Переменный / Постоянный
Битрейт : 4018 Кбит/сек / 1509 Кбит/сек
Каналы : 6 каналов
Расположение каналов : Front: L C R, Side: L R, LFE
Частота : 48,0 КГц
Частота кадров : 93,750 кадра/сек (512 SPF)
Битовая глубина : 24 бит
Метод сжатия : Без потерь / Lossy
Размер потока : 2,95 Гбайт (9%)
Заголовок : Русский DTS-HD MA - АП (Горчаков)
Язык : Russian
Default : Нет
Forced : Нет

Аудио #5
Идентификатор : 6
Формат : DTS
Формат/Информация : Digital Theater Systems
Профиль формата : MA / Core
Идентификатор кодека : A_DTS
Продолжительность : 1 ч. 44 м.
Вид битрейта : Переменный / Постоянный
Битрейт : 4024 Кбит/сек / 1509 Кбит/сек
Каналы : 6 каналов
Расположение каналов : Front: L C R, Side: L R, LFE
Частота : 48,0 КГц
Частота кадров : 93,750 кадра/сек (512 SPF)
Битовая глубина : 24 бит
Метод сжатия : Без потерь / Lossy
Размер потока : 2,95 Гбайт (9%)
Заголовок : Русский DTS-HD MA - АП (Живов)
Язык : Russian
Default : Нет
Forced : Нет

Аудио #6
Идентификатор : 7
Формат : AC-3
Формат/Информация : Audio Coding 3
Идентификатор кодека : A_AC3
Продолжительность : 1 ч. 44 м.
Вид битрейта : Постоянный
Битрейт : 448 Кбит/сек
Каналы : 6 каналов
Расположение каналов : Front: L C R, Side: L R, LFE
Частота : 48,0 КГц
Частота кадров : 31,250 кадров/сек (1536 SPF)
Битовая глубина : 16 бит
Метод сжатия : С потерями
Размер потока : 336 Мбайт (1%)
Заголовок : Украинский ас3 - Дубляж
Язык : Ukrainian
ServiceKind/String : Complete Main
Default : Нет
Forced : Нет

Аудио #7
Идентификатор : 8
Формат : DTS
Формат/Информация : Digital Theater Systems
Профиль формата : MA / Core
Идентификатор кодека : A_DTS
Продолжительность : 1 ч. 44 м.
Вид битрейта : Переменный / Постоянный
Битрейт : 4008 Кбит/сек / 1509 Кбит/сек
Каналы : 6 каналов
Расположение каналов : Front: L C R, Side: L R, LFE
Частота : 48,0 КГц
Частота кадров : 93,750 кадра/сек (512 SPF)
Битовая глубина : 24 бит
Метод сжатия : Без потерь / Lossy
Размер потока : 2,94 Гбайт (9%)
Заголовок : Английский DTS-HD MA - Оригинал
Язык : English
Default : Нет
Forced : Нет

Текст #1
Идентификатор : 9
Формат : UTF-8
Идентификатор кодека : S_TEXT/UTF8
Идентификатор кодека/Информация : UTF-8 Plain Text
Продолжительность : 36 м. 13 с.
Битрейт : 1 бит/сек
ElementCount : 12
Размер потока : 410 байт (0%)
Заголовок : Русские - Forced
Язык : Russian
Default : Да
Forced : Да

Текст #2
Идентификатор : 10
Формат : UTF-8
Идентификатор кодека : S_TEXT/UTF8
Идентификатор кодека/Информация : UTF-8 Plain Text
Продолжительность : 1 ч. 36 м.
Битрейт : 57 бит/сек
ElementCount : 842
Размер потока : 41,0 Кбайт (0%)
Заголовок : Русские
Язык : Russian
Default : Нет
Forced : Нет

Текст #3
Идентификатор : 11
Формат : UTF-8
Идентификатор кодека : S_TEXT/UTF8
Идентификатор кодека/Информация : UTF-8 Plain Text
Продолжительность : 1 ч. 32 м.
Битрейт : 33 бит/сек
ElementCount : 807
Размер потока : 22,4 Кбайт (0%)
Заголовок : Английские
Язык : English
Default : Нет
Forced : Нет

Меню
00:00:00.000 : :00:00:00.000
00:05:24.407 : :00:05:24.407
00:09:17.974 : :00:09:17.974
00:14:19.067 : :00:14:19.067
00:18:07.545 : :00:18:07.545
00:20:03.786 : :00:20:03.786
00:22:38.148 : :00:22:38.148
00:25:17.015 : :00:25:17.015
00:29:42.656 : :00:29:42.656
00:33:38.266 : :00:33:38.266
00:38:29.098 : :00:38:29.098
00:41:12.595 : :00:41:12.595
00:45:19.008 : :00:45:19.008
00:48:50.177 : :00:48:50.177
00:52:56.632 : :00:52:56.632
00:57:30.280 : :00:57:30.280
00:59:26.730 : :00:59:26.730
01:01:30.145 : :01:01:30.145
01:05:03.608 : :01:05:03.608
01:06:20.268 : :01:06:20.268
01:09:34.962 : :01:09:34.962
01:11:15.688 : :01:11:15.688
01:15:44.123 : :01:15:44.123
01:18:29.204 : :01:18:29.204
01:23:09.276 : :01:23:09.276
01:27:50.390 : :01:27:50.390
01:33:00.366 : :01:33:00.366
01:37:08.948 : :01:37:08.948


_________________
Проголосуй за трекер Открытый торрент трекер - RUS-MEDIA.ORG

Проголосуй Открытый торрент трекер - RUS-MEDIA.ORG


Вернуться к началу
 Профиль Отправить личное сообщение  
 
   Похожие торренты   Автор   Торрент   Размер 
В этой теме нет новых непрочитанных сообщений. Планета обезьян: Война / War for the Planet of the Apes [Фантастика, боевик, триллер, 2017] BDRemux 1080p, Dub

salma3

0 | 0

42.65 ГБ

В этой теме нет новых непрочитанных сообщений. Планета обезьян: Война / War for the Planet of the Apes [фантастика, боевик, триллер, 2017] BDRemux 1080p, Dub+Sub [Лицензия]

salma3

174 | 47

28.3 ГБ

В этой теме нет новых непрочитанных сообщений. Планета обезьян: Война / War for the Planet of the Apes [фантастика, боевик, триллер, 2017] BDRemux 1080p, Dub+Sub [Лицензия] [3D-Video]

salma3

12 | 7

40.92 ГБ

В этой теме нет новых непрочитанных сообщений. Бегство с планеты обезьян / Escape from the Planet of the Apes [фантастика, боевик, 1971] BDRip-AVC, Mvo+Sub

salma3

20 | 35

2.2 ГБ

В этой теме нет новых непрочитанных сообщений. Планета обезьян: Революция / Dawn of the Planet of the Apes [Фантастика, боевик, драма, 2014] BDRemux 1080p, Dub

salma3

0 | 1

39.92 ГБ

В этой теме нет новых непрочитанных сообщений. Планета обезьян: Война / War for the Planet of the Apes [Фантастика, боевик, приключения, 2017] BDRemux 1080p, Dub [Лицензия]

salma3

22 | 11

31.78 ГБ

В этой теме нет новых непрочитанных сообщений. Планета обезьян: Война / War for the Planet of the Apes [Фантастика, боевик, приключения, 2017] BDRemux 1080p, Dub [Лицензия]

salma3

58 | 75

31.78 ГБ


Начать новую тему Ответить на тему  [ 1 сообщение ] 




Для Мосгорсуда, Роскомнадзора и рекламодателей:: mosgorsud-torrent[собачка]yandex.ru
cron