Торрент файл
скачать торрент магнет ссылка Добавлен: 22 фев 2018, 13:53
Размер: 2.65 ГБ
Сидеров: 13
Личеров: 2
Статус: (salma3)
Автор

СообщениеДобавлено: 22 фев 2018, 13:53 

Не в сети
Супермодератор
Аватара пользователя
Дата регистрации:
15 фев 2012, 16:44
Возраст: 28
Спасибо: 7290 / 2147
Сообщения: 70489
Год выпуска: 2017
Жанр: Драма
Режиссер: Марк Уэбб

В ролях: Каллум Тернер, Джефф Бриджес, Кейт Бекинсейл, Пирс Броснан, Синтия Никсон, Кирси Клемонс, Тейт Донован, Уоллес Шон, Ан Дуонг, Деби Мейзар

О фильме:
Парень узнает, что его отец ходит на сторону. Он пытается это прекратить, но сам попадает в сети любовницы. Теперь, иcпользуя «полезные» советы соседей, он попытается завоевать ее сердце.



Страна: США
Продолжительность: 01:28:43
Перевод: Любительский многоголосый [GreenРай Studio]


Файл
Кодек: x.264
Качество: WEB-DLRip 720p
Видео: 4000 Кбит/с, 1280x688, 23.976 fps
Звук: Русский (AC3, 2 ch, 384 Кбит/с)

имеется реклама


General
Unique ID : 188813450484366959432016147253429912009 (0x8E0C25D778D56BE394EC386828E9C1C9)
Complete name : E:GreenRayThe.Only.Living.Boy.in.New.York.2017.P.WEB-DL.720p.mkv
Format : Matroska
Format version : Version 4 / Version 2
File size : 2.65 GiB
Duration : 1 h 28 min
Overall bit rate mode : Constant
Overall bit rate : 4 267 kb/s
Encoded date : UTC 2018-02-20 19:30:26
Writing application : mkvmerge v8.3.0 ('Over the Horizon') 64bit
Writing library : libebml v1.3.1 + libmatroska v1.4.2

Video
ID : 1
Format : AVC
Format/Info : Advanced Video Codec
Format profile : Main@L3.1
Format settings : CABAC / 3 Ref Frames
Format settings, CABAC : Yes
Format settings, ReFrames : 3 frames
Format settings, GOP : M=4, N=15
Codec ID : V_MPEG4/ISO/AVC
Duration : 1 h 28 min
Bit rate mode : Constant
Bit rate : 4 000 kb/s
Width : 1 280 pixels
Height : 688 pixels
Display aspect ratio : 1.85:1
Frame rate mode : Constant
Frame rate : 23.976 (24000/1001) FPS
Standard : NTSC
Color space : YUV
Chroma subsampling : 4:2:0
Bit depth : 8 bits
Scan type : Progressive
Bits/(Pixel*Frame) : 0.189
Stream size : 2.41 GiB (91%)
Language : English
Default : Yes
Forced : No
Color range : Limited

Audio
ID : 2
Format : AC-3
Format/Info : Audio Coding 3
Codec ID : A_AC3
Duration : 1 h 28 min
Bit rate mode : Constant
Bit rate : 384 kb/s
Channel(s) : 2 channels
Channel positions : Front: L R
Sampling rate : 48.0 kHz
Frame rate : 31.250 FPS (1536 SPF)
Bit depth : 16 bits
Compression mode : Lossy
Stream size : 244 MiB (9%)
Service kind : Complete Main
Default : Yes
Forced : No



Релиз от:


_________________
Проголосуй за трекер Открытый торрент трекер - RUS-MEDIA.ORG

Проголосуй Открытый торрент трекер - RUS-MEDIA.ORG


Вернуться к началу
 Профиль Отправить личное сообщение  
 
   Похожие торренты   Автор   Торрент   Размер 
В этой теме нет новых непрочитанных сообщений. Единственный живой парень в Нью-Йорке / The Only Living Boy in New York [Драма, 2017] WEB-DLRip, Mvo [GreenРай Studio]

salma3

0 | 0

1.4 ГБ

В этой теме нет новых непрочитанных сообщений. Единственный живой парень в Нью-Йорке / The Only Living Boy in New York [драма, мелодрама, 2017] WEB-DLRip, Mvo

salma3

77 | 44

1.44 ГБ

В этой теме нет новых непрочитанных сообщений. Единственный живой парень в Нью-Йорке / The Only Living Boy in New York [драма, 2017] WEBDLRip, Mvo

salma3

466 | 37

1.37 ГБ

В этой теме нет новых непрочитанных сообщений. Магазин видеокамер / Camera Store [Драма, 2017] WEB-DLRip 720p, Mvo [GreenРай Studio]

salma3

5 | 2

3.17 ГБ

В этой теме нет новых непрочитанных сообщений. Мир, полный чудес / Wonderstruck [Драма, детектив, семейный, 2017] WEB-DLRip 720p, Mvo [GreenРай Studio]

salma3

7 | 3

3.54 ГБ

В этой теме нет новых непрочитанных сообщений. Долина теней / Skyggenes dal / Valley of Shadows [ужасы, 2017] WEB-DLRip 720p, Mvo [GreenРай Studio]

salma3

25 | 11

2.51 ГБ

В этой теме нет новых непрочитанных сообщений. Магазин видеокамер / Camera Store [Драма, 2017] WEB-DLRip, Mvo [GreenРай Studio]

salma3

1 | 1

1.37 ГБ


Начать новую тему Ответить на тему  [ 1 сообщение ] 




Для Мосгорсуда, Роскомнадзора и рекламодателей:: mosgorsud-torrent[собачка]yandex.ru
cron