Торрент файл
скачать торрент магнет ссылка Добавлен: 22 фев 2018, 13:45
Размер: 3.67 ГБ
Сидеров: 0
Личеров: 0
Статус: (salma3)
Автор

СообщениеДобавлено: 22 фев 2018, 13:45 

В сети
Супермодератор
Аватара пользователя
Дата регистрации:
15 фев 2012, 16:44
Возраст: 28
Спасибо: 7223 / 2147
Сообщения: 67643
Год выхода: 2016
Жанр: драма
Режиссер: Жиль Маршан

В ролях: Жереми Элькайм, Тимоте Фон Дорп, Тео Ван де Ворде, Мика Зиммерман, Мирей Перье, Софи Куинтон, Кристель Безьен, Мари Мибало Йохансен, Андерс Эрикссон, Фредди Раш-Олсен, Эмиль Рос Линдгрен, Фредерик Карлсон, Анна Острём, Виктор Ландин, Джаспер Хоглунд, Жиль Балабо

О фильме:
Том и его старший брат по имени Бенджамин едут в Швецию к своему отцу. Воссоединение с этим странным и одиноким человеком имеет огромное значение для мальчика. Отец убеждён, что Том обладает даром видеть то, что не видят другие люди. Вскоре папа предлагает детям отправься на север, чтобы провести несколько дней в домике у озера. Братья с радостью соглашаются. Изоляция в глухом лесу усугубляет страхи мальчика. Дни проходят, и кажется, что отец вовсе не собирается возвращаться…



Страна: Франция, Швеция
Продолжительность: 01:38:57
Перевод: любительский одноголосный, закадровый [Семен Ващенко]

Файл
Кодек: H.264
Качество: WEB-DL 1080p
Видео: AVC, 1912x804 (2.40:1), 25 fps ~ 4429 Kbps
Звук:
AC3, 48 KHz, 6 ch ~ 384 Kb/s (русский)
AC3, 48 KHz, 6 ch ~ 384 Kb/s (французский)
Субтитры: русские (Дмитрий Дулов), английские
Общее
Уникальный идентификатор : 246930718883669823878633688094200609275 (0xB9C52066CEA17BA8897E49031B90B9FB)
Полное имя : Q:TorFDans la Foret (2016) 1080p WEB-DL.mkv
Формат : Matroska
Версия формата : Version 4 / Version 2
Размер файла : 3,67 Гбайт
Продолжительность : 1 ч. 38 м.
Общий поток : 5302 Кбит/сек
Дата кодирования : UTC 2017-11-20 06:57:42
Программа кодирования : mkvmerge v6.1.0 ('Old Devil') built on Mar 2 2013 14:32:37
Библиотека кодирования : libebml v1.3.0 + libmatroska v1.4.0
DURATION : 01:35:09.690000000
NUMBER_OF_FRAMES : 710
NUMBER_OF_BYTES : 30273
_STATISTICS_WRITING_APP : mkvmerge v9.4.2 ('So High') 64bit
_STATISTICS_WRITING_DATE_UTC : 2017-07-17 01:23:45
_STATISTICS_TAGS : BPS DURATION NUMBER_OF_FRAMES NUMBER_OF_BYTES
Видео
Идентификатор : 1
Формат : AVC
Формат/Информация : Advanced Video Codec
Профиль формата : High@L4.0
Параметр CABAC формата : Да
Параметр ReFrames формата : 5 кадров
Идентификатор кодека : V_MPEG4/ISO/AVC
Продолжительность : 1 ч. 38 м.
Битрейт : 4429 Кбит/сек
Ширина : 1912 пикселей
Высота : 804 пикселя
Соотношение сторон : 2,40:1
Частота кадров : 25,000 кадров/сек
Цветовое пространство : YUV
Субдискретизация насыщенности : 4:2:0
Битовая глубина : 8 бит
Тип развёртки : Прогрессивная
Бит/(Пиксели*Кадры) : 0.115
Размер потока : 3,06 Гбайт (84%)
Язык : English
Default : Да
Forced : Нет
Основные цвета : BT.709-5, BT.1361, IEC 61966-2-4, SMPTE RP177
Характеристики трансфера : BT.709-5, BT.1361
Коэффициенты матрицы : BT.709-5, BT.1361, IEC 61966-2-4 709, SMPTE RP177
Аудио #1
Идентификатор : 2
Формат : AC-3
Формат/Информация : Audio Coding 3
Расширение режима : CM (complete main)
Идентификатор кодека : A_AC3
Продолжительность : 1 ч. 38 м.
Вид битрейта : Постоянный
Битрейт : 384 Кбит/сек
Каналы : 6 каналов
Расположение каналов : Front: L C R, Side: L R, LFE
Частота : 48,0 КГц
Битовая глубина : 16 бит
Метод сжатия : С потерями
Размер потока : 272 Мбайт (7%)
Язык : Russian
Default : Да
Forced : Нет
Аудио #2
Идентификатор : 3
Формат : AC-3
Формат/Информация : Audio Coding 3
Расширение режима : CM (complete main)
Идентификатор кодека : A_AC3
Продолжительность : 1 ч. 38 м.
Вид битрейта : Постоянный
Битрейт : 384 Кбит/сек
Каналы : 6 каналов
Расположение каналов : Front: L C R, Side: L R, LFE
Частота : 48,0 КГц
Битовая глубина : 16 бит
Метод сжатия : С потерями
Размер потока : 272 Мбайт (7%)
Язык : French
Default : Нет
Forced : Нет
Текст #1
Идентификатор : 4
Формат : UTF-8
Идентификатор кодека : S_TEXT/UTF8
Идентификатор кодека/Информация : UTF-8 Plain Text
Язык : Russian
Default : Нет
Forced : Нет
Текст #2
Идентификатор : 5
Формат : UTF-8
Идентификатор кодека : S_TEXT/UTF8
Идентификатор кодека/Информация : UTF-8 Plain Text
Язык : English
Default : Нет
Forced : Нет
Меню
00:00:00.000 : en:Chapitre 01
00:09:00.000 : en:Chapitre 02
00:18:00.000 : en:Chapitre 03
00:27:00.000 : en:Chapitre 04
00:36:00.000 : en:Chapitre 05
00:45:00.000 : en:Chapitre 06
00:54:00.000 : en:Chapitre 07
01:03:00.000 : en:Chapitre 08
01:12:00.000 : en:Chapitre 09
01:21:00.000 : en:Chapitre 10



_________________
Проголосуй за трекер Открытый торрент трекер - RUS-MEDIA.ORG

Проголосуй Открытый торрент трекер - RUS-MEDIA.ORG


Вернуться к началу
 Профиль Отправить личное сообщение  
 
   Похожие торренты   Автор   Торрент   Размер 
В этой теме нет новых непрочитанных сообщений. В лесу / Into the Forest [фантастика, драма, 2015] WEB-DL 1080p, Mvo

salma3

433 | 33

3.23 ГБ

В этой теме нет новых непрочитанных сообщений. В лесу не сношаться! / Don't Fuck in the Woods [ужасы, 2016] WEB-DLRip, Dvo

salma3

3786 | 474

1.36 ГБ

В этой теме нет новых непрочитанных сообщений. В лесу не сношаться! / Don't Fuck in the Woods [ужасы, 2016] WEB-DLRip, Mvo

salma3

367 | 272

1.37 ГБ

В этой теме нет новых непрочитанных сообщений. В лесах Сибири / Dans les forêts de Sibérie [Приключения, 2016] HDRip, Mvo [iTunes]

salma3

4692 | 675

1.46 ГБ

В этой теме нет новых непрочитанных сообщений. Любовь-морковь по-французски / L'un dans l'autre [Комедия, 2017] WEB-DL 1080p, Dub [iTunes]

salma3

10 | 11

2.9 ГБ

В этой теме нет новых непрочитанных сообщений. Любовь-морковь по-французски / L'un dans l'autre [Комедия, 2017] BDRip 1080p, Dub [iTunes]

salma3

0 | 0

6.78 ГБ

В этой теме нет новых непрочитанных сообщений. Хижина в лесу / The Cabin in the Woods [ужасы, триллер, 2011] BDRemux 1080p, Dub [Лицензия]

salma3

38 | 21

21.76 ГБ


Начать новую тему Ответить на тему  [ 1 сообщение ] 




Для Мосгорсуда, Роскомнадзора и рекламодателей:: mosgorsud-torrent[собачка]yandex.ru
cron