Торрент файл
скачать торрент магнет ссылка Добавлен: 21 фев 2018, 13:17
Размер: 2.57 ГБ
Сидеров: 8
Личеров: 2
Статус: (salma3)
Автор

СообщениеДобавлено: 21 фев 2018, 13:17 

Не в сети
Супермодератор
Аватара пользователя
Дата регистрации:
15 фев 2012, 16:44
Возраст: 28
Спасибо: 7061 / 2147
Сообщения: 59110
Год выпуска: 2018
Жанр: Ужасы, триллер
Режиссер: Джонни Мартин

В ролях: Райан Пинкстон, Сет Остин, Елена Санчес, Гриффин Фриман, Йен Бамберг, Тереза Наварро, Мила Бренер, Майк К. Мэннинг, Б.Дж. Митчелл, Линдсэй Бушмен

О фильме:
есколько друзей берут на слабо своего одноклассника - ему надо дойти до крыльца знаменитого дома с привидениям, где в прошлом была убита семья из 13 человек, и принести видео-доказательство. Он не возвращается, и парни решают отправиться за ним, попутно снимая это. На крыльце дома они находят брошенную камеру и теперь им надо зайти внутрь и выяснить, что так напугало их друга и где он теперь.



Страна: США
Продолжительность: 01:25:16
Перевод: Любительский многоголосый [GreenРай Studio]

Файл
Кодек: x.264
Качество: WEB-DLRip 720
Видео: 1481 Кбит/с, 1280x720, 23.976 fps
Звук: Русский (AC3, 2 ch, 384 Кбит/с)

имеется реклама

General
Unique ID : 175187897501559643538030640052050165622 (0x83CBF636827121ECA57D989FD5617F76)
Complete name : E:GreenRayDelirium.2018.P.WEB-DL.720p.mkv
Format : Matroska
Format version : Version 4 / Version 2
File size : 2.57 GiB
Duration : 1 h 24 min
Overall bit rate mode : Constant
Overall bit rate : 4 350 kb/s
Encoded date : UTC 2018-02-20 14:36:53
Writing application : mkvmerge v8.3.0 ('Over the Horizon') 64bit
Writing library : libebml v1.3.1 + libmatroska v1.4.2

Video
ID : 1
Format : AVC
Format/Info : Advanced Video Codec
Format profile : Main@L3.2
Format settings : CABAC / 3 Ref Frames
Format settings, CABAC : Yes
Format settings, ReFrames : 3 frames
Codec ID : V_MPEG4/ISO/AVC
Duration : 1 h 24 min
Bit rate mode : Constant
Bit rate : 4 000 kb/s
Width : 1 280 pixels
Height : 720 pixels
Display aspect ratio : 16:9
Frame rate mode : Constant
Frame rate : 23.976 (24000/1001) FPS
Standard : NTSC
Color space : YUV
Chroma subsampling : 4:2:0
Bit depth : 8 bits
Scan type : Progressive
Bits/(Pixel*Frame) : 0.181
Stream size : 2.35 GiB (91%)
Language : English
Default : Yes
Forced : No
Color range : Limited

Audio
ID : 2
Format : AC-3
Format/Info : Audio Coding 3
Codec ID : A_AC3
Duration : 1 h 24 min
Bit rate mode : Constant
Bit rate : 384 kb/s
Channel(s) : 2 channels
Channel positions : Front: L R
Sampling rate : 48.0 kHz
Frame rate : 31.250 FPS (1536 SPF)
Bit depth : 16 bits
Compression mode : Lossy
Stream size : 233 MiB (9%)
Service kind : Complete Main
Default : Yes
Forced : No



Релиз от:


_________________
Проголосуй за трекер Открытый торрент трекер - RUS-MEDIA.ORG

Проголосуй Открытый торрент трекер - RUS-MEDIA.ORG


Вернуться к началу
 Профиль Отправить личное сообщение  
 
   Похожие торренты   Автор   Торрент   Размер 
В этой теме нет новых непрочитанных сообщений. Делириум / Delirium [Ужасы, триллер, 2018] WEB-DLRip, Mvo [GreenРай Studio]

salma3

21 | 5

1.37 ГБ

В этой теме нет новых непрочитанных сообщений. Убежище страха / Asylum of Fear [Ужасы, триллер, детектив, 2018] WEBRip 720p, Mvo [GreenРай Studio]

salma3

7 | 6

2.05 ГБ

В этой теме нет новых непрочитанных сообщений. Батальон / Battalion [Фантастика, 2018] WEB-DLRip 720p, Mvo [GreenРай Studio]

salma3

0 | 4

3.01 ГБ

В этой теме нет новых непрочитанных сообщений. Смертельная игра / Headgame [ужасы, 2018] HDRip 720p, Mvo [GreenРай Studio]

salma3

28 | 15

1.43 ГБ

В этой теме нет новых непрочитанных сообщений. Долина теней / Skyggenes dal / Valley of Shadows [ужасы, 2017] WEB-DLRip 720p, Mvo [GreenРай Studio]

salma3

25 | 11

2.51 ГБ

В этой теме нет новых непрочитанных сообщений. 5 Женщин / 5 Frauen [Триллер, 2016] WEB-DLRip 720p, Mvo [GreenРай Studio]

salma3

16 | 9

2.95 ГБ

В этой теме нет новых непрочитанных сообщений. 7 хранителей гробницы / 7 Guardians of the Tomb [боевик, приключения, ужасы, 2018] HDRip 720p, Mvo [GreenРай Studio]

salma3

106 | 27

1.45 ГБ


Начать новую тему Ответить на тему  [ 1 сообщение ] 




Для Мосгорсуда, Роскомнадзора и рекламодателей:: mosgorsud-torrent[собачка]yandex.ru
cron