Торрент файл
скачать торрент магнет ссылка Добавлен: 18 фев 2018, 22:06
Размер: 11.71 ГБ
Сидеров: 0
Личеров: 0
Статус: (salma3)
Автор

СообщениеДобавлено: 18 фев 2018, 22:06 

Не в сети
Супермодератор
Аватара пользователя
Дата регистрации:
15 фев 2012, 16:44
Возраст: 28
Спасибо: 7203 / 2147
Сообщения: 65002
Год выхода: 1993
Жанр: комедия
Режиссер: Ричард Бенджамин

В ролях: Вупи Голдберг, Тед Дэнсон, Уилл Смит, Ниа Лонг, Пол Родригес, Дженнифер Тилли, Пегги Ри, Клайд Кусацу, Дэвид Бове, Джефф Джозеф

О фильме: Когда Сара Мэтьюз в поисках своего будущего ребенка обратилась в банк спермы, она поставила три условия: донор должен быть здоровым, умным и чернокожим. Через 17 лет ее дочь Зора решила найти своего отца.



Страна: США, Франция
Продолжительность: 01:50:38
Перевод 1: Профессиональный (многоголосый закадровый) Гемини-Фильм
Перевод 2: Профессиональный (двухголосый закадровый) Лазер Видео
Перевод 3: Профессиональный (двухголосый закадровый) НТВ
Перевод 4: Профессиональный (двухголосый закадровый) ТНТ
Перевод 5: Авторский (одноголосый закадровый) Василий Горчаков
Перевод 6: Любительский (одноголосый закадровый)
Субтитры: русские, английские

Файл
Качество: WEB-DL 1080p
Видео: 1920x1080 (16:9), 23.976 fps, AVC, ~13.5 Mbps, 0.271 bits/pixel
Аудио 1: Russian, 48.0 KHz, AC3, 2 ch, 192 Kbps - Гемини-Фильм
Аудио 2: Russian, 48.0 KHz, AC3, 2 ch, 192 Kbps - Лазер Видео
Аудио 3: Russian, 48.0 KHz, AC3, 2 ch, 192 Kbps - НТВ
Аудио 4: Russian, 48.0 KHz, AC3, 2 ch, 192 Kbps - ТНТ
Аудио 5: Russian, 48.0 KHz, AC3, 2 ch, 192 Kbps - Василий Горчаков
Аудио 6: Russian, 48.0 KHz, AC3, 2 ch, 192 Kbps
Аудио 7: English, 48.0 KHz, AC3+, 2 ch, 224 Kbps

General
Unique ID : 333204444234970811209880599764325238301 (0xFAACD7780BBA4E74DEFFF974F56A061D)
Complete name : Made in America. WEB-DL 1080p.mkv
Format : Matroska
Format version : Version 4 / Version 2
File size : 11.7 GiB
Duration : 1 h 50 min
Overall bit rate mode : Variable
Overall bit rate : 15.2 Mb/s
Encoded date : UTC 2018-02-08 20:45:40
Writing application : mkvmerge v19.0.0 ('Brave Captain') 64-bit
Writing library : libebml v1.3.5 + libmatroska v1.4.8

Video
ID : 1
Format : AVC
Format/Info : Advanced Video Codec
Format profile : High@L4
Format settings : CABAC / 4 Ref Frames
Format settings, CABAC : Yes
Format settings, ReFrames : 4 frames
Codec ID : V_MPEG4/ISO/AVC
Duration : 1 h 50 min
Bit rate mode : Variable
Bit rate : 13.8 Mb/s
Maximum bit rate : 15.0 Mb/s
Width : 1 920 pixels
Height : 1 080 pixels
Display aspect ratio : 16:9
Frame rate mode : Constant
Frame rate : 23.976 (24000/1001) FPS
Color space : YUV
Chroma subsampling : 4:2:0
Bit depth : 8 bits
Scan type : Progressive
Bits/(Pixel*Frame) : 0.277
Stream size : 10.6 GiB (91%)
Language : English
Default : Yes
Forced : No
Color range : Limited
Color primaries : BT.709
Transfer characteristics : BT.709
Matrix coefficients : BT.709

Audio #1
ID : 2
Format : AC-3
Format/Info : Audio Coding 3
Codec ID : A_AC3
Duration : 1 h 50 min
Bit rate mode : Constant
Bit rate : 192 kb/s
Channel(s) : 2 channels
Channel positions : Front: L R
Sampling rate : 48.0 kHz
Frame rate : 31.250 FPS (1536 SPF)
Bit depth : 16 bits
Compression mode : Lossy
Stream size : 152 MiB (1%)
Title : Гемини-Фильм
Language : Russian
Default : Yes
Forced : No

Audio #2
ID : 3
Format : AC-3
Format/Info : Audio Coding 3
Codec ID : A_AC3
Duration : 1 h 50 min
Bit rate mode : Constant
Bit rate : 192 kb/s
Channel(s) : 2 channels
Channel positions : Front: L R
Sampling rate : 48.0 kHz
Frame rate : 31.250 FPS (1536 SPF)
Bit depth : 16 bits
Compression mode : Lossy
Stream size : 152 MiB (1%)
Title : Лазер Видео
Language : Russian
Default : No
Forced : No

Audio #3
ID : 4
Format : AC-3
Format/Info : Audio Coding 3
Codec ID : A_AC3
Duration : 1 h 50 min
Bit rate mode : Constant
Bit rate : 192 kb/s
Channel(s) : 2 channels
Channel positions : Front: L R
Sampling rate : 48.0 kHz
Frame rate : 31.250 FPS (1536 SPF)
Bit depth : 16 bits
Compression mode : Lossy
Stream size : 152 MiB (1%)
Title : НТВ
Language : Russian
Default : No
Forced : No

Audio #4
ID : 5
Format : AC-3
Format/Info : Audio Coding 3
Codec ID : A_AC3
Duration : 1 h 50 min
Bit rate mode : Constant
Bit rate : 192 kb/s
Channel(s) : 2 channels
Channel positions : Front: L R
Sampling rate : 48.0 kHz
Frame rate : 31.250 FPS (1536 SPF)
Bit depth : 16 bits
Compression mode : Lossy
Stream size : 152 MiB (1%)
Title : ТНТ
Language : Russian
Default : No
Forced : No

Audio #5
ID : 6
Format : AC-3
Format/Info : Audio Coding 3
Codec ID : A_AC3
Duration : 1 h 50 min
Bit rate mode : Constant
Bit rate : 192 kb/s
Channel(s) : 2 channels
Channel positions : Front: L R
Sampling rate : 48.0 kHz
Frame rate : 31.250 FPS (1536 SPF)
Bit depth : 16 bits
Compression mode : Lossy
Stream size : 152 MiB (1%)
Title : Василий Горчаков
Language : Russian
Default : No
Forced : No

Audio #6
ID : 7
Format : AC-3
Format/Info : Audio Coding 3
Codec ID : A_AC3
Duration : 1 h 50 min
Bit rate mode : Constant
Bit rate : 192 kb/s
Channel(s) : 2 channels
Channel positions : Front: L R
Sampling rate : 48.0 kHz
Frame rate : 31.250 FPS (1536 SPF)
Bit depth : 16 bits
Compression mode : Lossy
Stream size : 152 MiB (1%)
Language : Russian
Default : No
Forced : No

Audio #7
ID : 8
Format : E-AC-3
Format/Info : Enhanced Audio Coding 3
Codec ID : A_EAC3
Duration : 1 h 50 min
Bit rate mode : Constant
Bit rate : 224 kb/s
Channel(s) : 2 channels
Channel positions : Front: L R
Sampling rate : 48.0 kHz
Frame rate : 187.500 FPS (256 SPF)
Compression mode : Lossy
Stream size : 177 MiB (1%)
Language : English
Default : No
Forced : No

Text #1
ID : 9
Format : UTF-8
Codec ID : S_TEXT/UTF8
Codec ID/Info : UTF-8 Plain Text
Duration : 1 h 44 min
Bit rate : 104 b/s
Count of elements : 1161
Stream size : 79.9 KiB (0%)
Language : Russian
Default : No
Forced : No

Text #2
ID : 10
Format : UTF-8
Codec ID : S_TEXT/UTF8
Codec ID/Info : UTF-8 Plain Text
Duration : 1 h 46 min
Bit rate : 65 b/s
Count of elements : 2241
Stream size : 51.0 KiB (0%)
Language : English
Default : No
Forced : No


_________________
Проголосуй за трекер Открытый торрент трекер - RUS-MEDIA.ORG

Проголосуй Открытый торрент трекер - RUS-MEDIA.ORG


Вернуться к началу
 Профиль Отправить личное сообщение  
 
   Похожие торренты   Автор   Торрент   Размер 
В этой теме нет новых непрочитанных сообщений. Сделано в Америке / American Made [боевик, триллер, драма, 2017] WEBRip 1080p, Mvo

salma3

38 | 12

4.22 ГБ

В этой теме нет новых непрочитанных сообщений. Сделано в Америке / American Made [Боевик, триллер, драма, комедия, 2017] BDRip, Dub [Лицензия]

salma3

163 | 14

2.18 ГБ

В этой теме нет новых непрочитанных сообщений. Сделано в Америке / American Made [боевик, триллер, драма, 2017] WEBRip, Mvo

salma3

681 | 222

1.46 ГБ

В этой теме нет новых непрочитанных сообщений. Сделано в Америке / American Made [боевик, триллер, драма, 2017] WEB-DLRip, Mvo

salma3

291 | 96

1.37 ГБ

В этой теме нет новых непрочитанных сообщений. Сделано в Америке / American Made [боевик, триллер, драма, 2017] WEB-DLRip, Mvo

salma3

198 | 43

2.05 ГБ

В этой теме нет новых непрочитанных сообщений. Сделано в Америке / American Made [Боевик, триллер, драма, 2017] Blu-ray EUR, Dub [Лицензия]

salma3

44 | 40

39.01 ГБ

В этой теме нет новых непрочитанных сообщений. Сделано в Америке / American Made [Боевик, триллер, драма, 2017] BDRip-AVC, Dub [iTunes]

salma3

37 | 6

748.05 МБ


Начать новую тему Ответить на тему  [ 1 сообщение ] 




Для Мосгорсуда, Роскомнадзора и рекламодателей:: mosgorsud-torrent[собачка]yandex.ru
cron