Торрент файл
скачать торрент магнет ссылка Добавлен: 16 фев 2018, 01:39
Размер: 25.75 ГБ
Сидеров: 0
Личеров: 1
Статус: (salma3)
Автор

СообщениеДобавлено: 16 фев 2018, 01:39 

Не в сети
Супермодератор
Аватара пользователя
Дата регистрации:
15 фев 2012, 16:44
Возраст: 28
Спасибо: 7290 / 2147
Сообщения: 70662
Год выпуска: 2017
Жанр: Драма, биография
Режиссер: Джозеф Косински

В ролях: Джош Бролин, Майлз Теллер, Джефф Бриджес, Джеймс Бэдж Дэйл, Тейлор Китч, Дженнифер Коннелли, Скотт Хэйз, Алекс Расселл, Бен Харди, Натали Холл

О фильме:
История о команде пожарных под названием Granite Mountain Hotshots, столкнувшихся в Аризоне с одним из самых смертоносных пожаров в истории.



Страна: США
Продолжительность: 02:14:03
Перевод: Дублированный | iTunes

Качество: BDRemux 1080p
Видео: MPEG-4 AVC, 1920x1080, 24.9 Mbit/s, 23.976 fps
Аудио01: 48 kHz, AC3, 5.1, 384 Kbps | Дублированный | iTunes | RUS
Аудио02: 48 kHz, DTS-HD MA, 5.1, 2253 Kbps | Оригинал | ENG
Субтитры: Русские (full), английские[/center]


General
Unique ID : 159615223300554290431806375578970136545 (0x7814C618A38CCB30E12DC59020AC9FE1)
Complete name : C:Video111Only.the.Brave.2017.BDREMUX.1080p.ExKinoRay.mkv
Format : Matroska
Format version : Version 4 / Version 2
File size : 25.7 GiB
Duration : 2 h 14 min
Overall bit rate mode : Variable
Overall bit rate : 27.5 Mb/s
Movie name : Only the Brave 2017 from ExKinoRay
Encoded date : UTC 2018-02-15 21:28:10
Writing application : mkvmerge v20.0.0 ('I Am The Sun') 64-bit
Writing library : libebml v1.3.5 + libmatroska v1.4.8

Video
ID : 1
Format : AVC
Format/Info : Advanced Video Codec
Format profile : High@L4.1
Format settings : CABAC / 2 Ref Frames
Format settings, CABAC : Yes
Format settings, ReFrames : 2 frames
Format settings, GOP : M=1, N=10
Codec ID : V_MPEG4/ISO/AVC
Duration : 2 h 14 min
Bit rate mode : Variable
Bit rate : 24.9 Mb/s
Width : 1 920 pixels
Height : 1 080 pixels
Display aspect ratio : 16:9
Frame rate mode : Constant
Frame rate : 23.976 (24000/1001) FPS
Color space : YUV
Chroma subsampling : 4:2:0
Bit depth : 8 bits
Scan type : Progressive
Bits/(Pixel*Frame) : 0.500
Stream size : 23.3 GiB (90%)
Language : English
Default : Yes
Forced : No

Audio #1
ID : 2
Format : AC-3
Format/Info : Audio Coding 3
Codec ID : A_AC3
Duration : 2 h 14 min
Bit rate mode : Constant
Bit rate : 384 kb/s
Channel(s) : 6 channels
Channel positions : Front: L C R, Side: L R, LFE
Sampling rate : 48.0 kHz
Frame rate : 31.250 FPS (1536 SPF)
Bit depth : 16 bits
Compression mode : Lossy
Stream size : 368 MiB (1%)
Title : iTunes
Language : Russian
Service kind : Complete Main
Default : Yes
Forced : No

Audio #2
ID : 3
Format : DTS
Format/Info : Digital Theater Systems
Format profile : MA / Core
Codec ID : A_DTS
Duration : 2 h 14 min
Bit rate mode : Variable / Constant
Bit rate : 2 253 kb/s / 1 509 kb/s
Channel(s) : 6 channels
Channel positions : Front: L C R, Side: L R, LFE
Sampling rate : 48.0 kHz
Frame rate : 93.750 FPS (512 SPF)
Bit depth : 16 bits
Compression mode : Lossless / Lossy
Stream size : 2.11 GiB (8%)
Title : Original
Language : English
Default : No
Forced : No

Text #1
ID : 4
Format : UTF-8
Codec ID : S_TEXT/UTF8
Codec ID/Info : UTF-8 Plain Text
Duration : 2 h 3 min
Bit rate : 89 b/s
Count of elements : 1888
Stream size : 80.8 KiB (0%)
Title : Full
Language : Russian
Default : No
Forced : No

Text #2
ID : 5
Format : UTF-8
Codec ID : S_TEXT/UTF8
Codec ID/Info : UTF-8 Plain Text
Duration : 2 h 3 min
Bit rate : 65 b/s
Count of elements : 1897
Stream size : 59.1 KiB (0%)
Title : Full
Language : English
Default : No
Forced : No

Menu
00:00:00.000 : en:00:00:00.000
00:06:39.107 : en:00:06:39.107
00:16:14.891 : en:00:16:14.891
00:26:30.297 : en:00:26:30.297
00:34:26.856 : en:00:34:26.856
00:43:54.298 : en:00:43:54.298
00:51:29.336 : en:00:51:29.336
00:59:18.430 : en:00:59:18.430
01:08:27.312 : en:01:08:27.312
01:16:19.366 : en:01:16:19.366
01:24:16.468 : en:01:24:16.468
01:32:51.524 : en:01:32:51.524
01:39:07.567 : en:01:39:07.567
01:45:11.972 : en:01:45:11.972
01:52:54.935 : en:01:52:54.935
02:02:04.776 : en:02:02:04.776


Релиз от: Автор релиза:


_________________
Проголосуй за трекер Открытый торрент трекер - RUS-MEDIA.ORG

Проголосуй Открытый торрент трекер - RUS-MEDIA.ORG


Вернуться к началу
 Профиль Отправить личное сообщение  
 
   Похожие торренты   Автор   Торрент   Размер 
В этой теме нет новых непрочитанных сообщений. Дело храбрых / Only the Brave [Драма, биография, 2017] BDRip 1080p, Dub [iTunes]

salma3

14 | 25

15.95 ГБ

В этой теме нет новых непрочитанных сообщений. Дело храбрых / Only the Brave [драма, биография, 2017] BDRip-AVC, Dub [iTunes]

salma3

23 | 7

3.8 ГБ

В этой теме нет новых непрочитанных сообщений. Дело храбрых / Only the Brave [Драма, биография, 2017] BDRip, Dub [iTunes]

salma3

3790 | 1340

1.46 ГБ

В этой теме нет новых непрочитанных сообщений. Дело храбрых / Only the Brave [Драма, биография, 2017] BDRip, Dub [iTunes]

salma3

0 | 0

2.12 ГБ

В этой теме нет новых непрочитанных сообщений. Дело храбрых / Only the Brave [драма, биография, 2017] HDRip-AVC, Dub [iTunes]

salma3

0 | 0

746.83 МБ

В этой теме нет новых непрочитанных сообщений. Дело храбрых / Only the Brave [Драма, биография, 2017] HDRip, Mvo [GreenРай Studio]

salma3

24 | 6

2.05 ГБ

В этой теме нет новых непрочитанных сообщений. Д Дело храбрых / Only the Brave (Джозеф Косински / Joseph Kosinski) [2017г., драма, биография, HDRip] MVO

Alfredovich

676 | 62

1.31 ГБ


Начать новую тему Ответить на тему  [ 1 сообщение ] 




Для Мосгорсуда, Роскомнадзора и рекламодателей:: mosgorsud-torrent[собачка]yandex.ru
cron