Торрент файл
скачать торрент магнет ссылка Добавлен: 13 фев 2018, 12:09
Размер: 3.59 ГБ
Сидеров: 9
Личеров: 6
Статус: (salma3)
Автор

СообщениеДобавлено: 13 фев 2018, 12:09 

Не в сети
Супермодератор
Аватара пользователя
Дата регистрации:
15 фев 2012, 16:44
Возраст: 29
Спасибо: 7328 / 2147
Сообщения: 73737
Год выпуска: 2017
Жанр: Драма
Режиссер: Шон Бэйкер

В ролях: Уиллем Дефо, Бруклин Принс, Калеб Лэндри Джонс, Мэйкон Блэр, Карен Карагулян, Сэнди Кэйн

О фильме:
Это лето Муни и ее друзья не забудут. Каждый день они, переполненные энергией и пренебрежением к взрослым, носятся по волшебному миру одноэтажной Америки на подступах к Диснейленду. Помешать им могут только родители или строгий надзиратель.



Страна: США
Продолжительность: 01:52:08
Перевод: Любительский многоголосый [GreenРай Studio]

Файл
Кодек: x264
Качество: HDRip 720p
Видео: 4000 Кбит/с, 1280x536, 23.976 fps
Звук: Русский (AC3, 2 ch, 640 Кбит/с)

имеется реклама


General
Unique ID : 249458354415794371220873519474295863455 (0xBBABEE74785F106D9B16459CDF9A789F)
Complete name : E:workThe.Florida.Project.2017.P.BDRip.720p.mkv
Format : Matroska
Format version : Version 4 / Version 2
File size : 3.59 GiB
Duration : 1 h 52 min
Overall bit rate mode : Constant
Overall bit rate : 4 586 kb/s
Encoded date : UTC 2018-02-08 14:15:05
Writing application : mkvmerge v8.3.0 ('Over the Horizon') 64bit
Writing library : libebml v1.3.1 + libmatroska v1.4.2

Video
ID : 1
Format : AVC
Format/Info : Advanced Video Codec
Format profile : Main@L3.1
Format settings : CABAC / 3 Ref Frames
Format settings, CABAC : Yes
Format settings, ReFrames : 3 frames
Format settings, GOP : M=4, N=15
Codec ID : V_MPEG4/ISO/AVC
Duration : 1 h 52 min
Bit rate mode : Constant
Bit rate : 4 000 kb/s
Width : 1 280 pixels
Height : 536 pixels
Display aspect ratio : 2.40:1
Frame rate mode : Constant
Frame rate : 23.976 (24000/1001) FPS
Standard : NTSC
Color space : YUV
Chroma subsampling : 4:2:0
Bit depth : 8 bits
Scan type : Progressive
Bits/(Pixel*Frame) : 0.243
Stream size : 3.09 GiB (86%)
Language : English
Default : Yes
Forced : No
Color range : Limited

Audio
ID : 2
Format : AC-3
Format/Info : Audio Coding 3
Codec ID : A_AC3
Duration : 1 h 52 min
Bit rate mode : Constant
Bit rate : 640 kb/s
Channel(s) : 2 channels
Channel positions : Front: L R
Sampling rate : 48.0 kHz
Frame rate : 31.250 FPS (1536 SPF)
Bit depth : 16 bits
Compression mode : Lossy
Stream size : 513 MiB (14%)
Service kind : Complete Main
Default : Yes
Forced : No


Релиз от:


_________________
Проголосуй за трекер Открытый торрент трекер - RUS-MEDIA.ORG

Проголосуй Открытый торрент трекер - RUS-MEDIA.ORG


Вернуться к началу
 Профиль Отправить личное сообщение  
 
   Похожие торренты   Автор   Торрент   Размер 
В этой теме нет новых непрочитанных сообщений. Проект «Флорида» / The Florida Project [Драма, 2017] HDRip, Mvo [GreenРай Studio]

salma3

16 | 5

1.37 ГБ

В этой теме нет новых непрочитанных сообщений. Проект Флорида / The Florida Project [драма, 2017] BDRip 720p, Mvo

salma3

0 | 0

6.49 ГБ

В этой теме нет новых непрочитанных сообщений. Проект Флорида / The Florida Project [драма, 2017] BDRip, Mvo

salma3

0 | 0

1.46 ГБ

В этой теме нет новых непрочитанных сообщений. Непостижимое / Inconceivable [Триллер, драма, 2017] HDRip 720p, Mvo [GreenРай Studio]

salma3

8 | 3

3.33 ГБ

В этой теме нет новых непрочитанных сообщений. Мешок мрамора / Un sac de billes [Драма, 2017] HDRip 720p, Mvo [GreenРай Studio]

salma3

13 | 11

4.23 ГБ

В этой теме нет новых непрочитанных сообщений. Красный Стамбул / Istanbul Kirmizisi [Драма, 2017] HDRip 720p, Mvo [GreenРай Studio]

salma3

4 | 2

3.63 ГБ

В этой теме нет новых непрочитанных сообщений. 120 ударов в минуту / 120 battements par minute [драма, 2017] HDRip 720p, Mvo [GreenРай Studio]

salma3

21 | 6

3.34 ГБ


Начать новую тему Ответить на тему  [ 1 сообщение ] 




Для Мосгорсуда, Роскомнадзора и рекламодателей:: mosgorsud-torrent[собачка]yandex.ru
cron