Торрент файл
скачать торрент магнет ссылка Добавлен: 09 фев 2018, 17:42
Размер: 18.18 ГБ
Сидеров: 0
Личеров: 0
Статус: (salma3)
Автор

СообщениеДобавлено: 09 фев 2018, 17:42 

Не в сети
Супермодератор
Аватара пользователя
Дата регистрации:
15 фев 2012, 16:44
Возраст: 29
Спасибо: 7328 / 2147
Сообщения: 73502
Год выпуска: 2009
Страна: США, Новая Зеландия
Жанр: ужасы, боевик, триллер, фэнтези.
Продолжительность: 01:32:28
Перевод: Профессиональный (полное дублирование) Лицензия, Авторский (одноголосый, закадровый) Королёв
Режиссер: Патрик Татопулос

В ролях: Майкл Шин (Lucian), Билл Найи (Viktor), Рона Митра (Sonja), Стивен Макинтош (Tannis), Кевин Гревье (Raze), Дэвид Эстон (Coloman)

Описание: История, прослеживающая происхождение вековой кровной мести, между аристократическими вампирами, известными как Торговцы смертью и их рабами. Молодой ликан по имени Люциан — мощный лидер, который сплачивает оборотней, чтобы выступить против Виктора, жестокого короля вампиров, который поработил их. К Люциану присоединяется Соня, и помогает ему в его борьбе против смертоносной армии торговцев смертью и борьбе за свободу ликанов.

Качество: BDRemux (1080p)
Формат: MKV
Аудио кодек: DTS
Видео: 1920x1080p / 23,976 fps / 16:9 / High Profile 4.1, H.264, ~ 23000 kbps
Аудио#1: Русский (Дублированный), 48 kHz, DTS, 3/2 (L,C,R,l,r) + LFE ch, ~1510.00 Kbps |Дубляж, Blu-ray|
Аудио#2: Русский (Авторский (Королёв)), 48 kHz, DTS, 3/2 (L,C,R,l,r) + LFE ch, ~1510.00 Kbps
Аудио#3: Английский (Оригинал), 48 kHz, DTS, 3/2 (L,C,R,l,r) + LFE ch, ~1536.00 Kbps avg

General
Unique ID : 214690500005073204575929516755250257622 (0xA183E2E2D2583E9799211C8F3B931ED6)
Complete name : D:ÔèëüìûÄðóãîé Ìèð - Âîññòàíèå ëèêàíîâ.mkv
Format : Matroska
File size : 18.2 GiB
Duration : 1h 32mn
Overall bit rate : 28.1 Mbps
Encoded date : UTC 2011-08-23 15:55:17
Writing application : mkvmerge v3.3.0 ('Language') ñáîðêà îò May 14 2010 17:11:50
Writing library : libebml v0.8.0 + libmatroska v0.9.0

Video
ID : 1
Format : AVC
Format/Info : Advanced Video Codec
Format profile : High@L4.1
Format settings, CABAC : Yes
Format settings, ReFrames : 4 frames
Codec ID : V_MPEG4/ISO/AVC
Duration : 1h 32mn
Bit rate mode : Variable
Bit rate : 23.0 Mbps
Maximum bit rate : 26.0 Mbps
Width : 1 920 pixels
Height : 1 080 pixels
Display aspect ratio : 16:9
Frame rate : 23.976 fps
Color space : YUV
Chroma subsampling : 4:2:0
Bit depth : 8 bits
Scan type : Progressive
Bits/(Pixel*Frame) : 0.464
Stream size : 14.9 GiB (82%)
Color primaries : BT.709-5, BT.1361, IEC 61966-2-4, SMPTE RP177
Transfer characteristics : BT.709-5, BT.1361
Matrix coefficients : BT.709-5, BT.1361, IEC 61966-2-4 709, SMPTE RP177

Audio #1
ID : 2
Format : DTS
Format/Info : Digital Theater Systems
Codec ID : A_DTS
Duration : 1h 32mn
Bit rate mode : Constant
Bit rate : 1 510 Kbps
Channel(s) : 6 channels
Channel positions : Front: L C R, Side: L R, LFE
Sampling rate : 48.0 KHz
Bit depth : 16 bits
Compression mode : Lossy
Stream size : 999 MiB (5%)
Title : Äóáëÿæ
Language : Russian

Audio #2
ID : 3
Format : DTS
Format/Info : Digital Theater Systems
Codec ID : A_DTS
Duration : 1h 32mn
Bit rate mode : Constant
Bit rate : 1 510 Kbps
Channel(s) : 6 channels
Channel positions : Front: L C R, Side: L R, LFE
Sampling rate : 48.0 KHz
Bit depth : 16 bits
Compression mode : Lossy
Stream size : 999 MiB (5%)
Title : Êîðîë¸â
Language : Russian

Audio #3
ID : 4
Format : DTS
Format/Info : Digital Theater Systems
Codec ID : A_DTS
Duration : 1h 32mn
Bit rate mode : Constant
Bit rate : 1 510 Kbps
Channel(s) : 6 channels
Channel positions : Front: L C R, Side: L R, LFE
Sampling rate : 48.0 KHz
Bit depth : 24 bits
Compression mode : Lossy
Stream size : 999 MiB (5%)
Title : Îðèãèíàë
Language : English

Text #1
ID : 5
Format : UTF-8
Codec ID : S_TEXT/UTF8
Codec ID/Info : UTF-8 Plain Text
Language : Russian

Text #2
ID : 6
Format : ASS
Codec ID : S_TEXT/ASS
Codec ID/Info : Advanced Sub Station Alpha
Compression mode : Lossless
Language : English


_________________
Проголосуй за трекер Открытый торрент трекер - RUS-MEDIA.ORG

Проголосуй Открытый торрент трекер - RUS-MEDIA.ORG


Вернуться к началу
 Профиль Отправить личное сообщение  
 
   Похожие торренты   Автор   Торрент   Размер 
В этой теме нет новых непрочитанных сообщений. Другой мир: Войны крови / Underworld: Blood Wars [Фэнтези, ужасы, боевик, 2016] BDRemux 1080p, Dub+Sub [Лицензия]

salma3

0 | 0

20.9 ГБ

В этой теме нет новых непрочитанных сообщений. Другой мир / Underworld [Фэнтези, боевик, триллер, 2003] UHD BDRemux 2160p, Dub [4K] [Театральная версия]

salma3

13 | 10

45.33 ГБ

В этой теме нет новых непрочитанных сообщений. Другой мир: Войны крови / Underworld: Blood Wars [Ужасы, боевик, 2016] BDRemux 1080p, Dub+Avo+Sub [3D Video] [Лицензия]

salma3

42 | 173

26.33 ГБ

В этой теме нет новых непрочитанных сообщений. Восстание планеты обезьян / Rise of the Planet of the Apes [Фантастика, боевик, триллер, 2011] BDRemux 1080p, Dub

salma3

0 | 0

34.53 ГБ

В этой теме нет новых непрочитанных сообщений. Другой мир: Войны крови / Underworld: Blood Wars [Ужасы, Фэнтези, Боевик, 2016] BDRip 1080p, Dub [3D-Video]

salma3

760 | 258

6.44 ГБ

В этой теме нет новых непрочитанных сообщений. Другой мир: Войны крови / Underworld: Blood Wars [Ужасы, боевик, 2016] UHD BDRemux 2160p, Dub [4K] [Лицензия]

salma3

26 | 46

37.55 ГБ

В этой теме нет новых непрочитанных сообщений. Другой мир: Войны крови / Underworld: Blood Wars [ужасы, фэнтези, боевик, 2016] BDRip, Avo [Живов]

salma3

23 | 7

1.43 ГБ


Начать новую тему Ответить на тему  [ 1 сообщение ] 




Для Мосгорсуда, Роскомнадзора и рекламодателей:: mosgorsud-torrent[собачка]yandex.ru
cron