Торрент файл
скачать торрент магнет ссылка Добавлен: 05 фев 2018, 21:20
Размер: 10.91 ГБ
Сидеров: 0
Личеров: 0
Статус: (salma3)
Автор

СообщениеДобавлено: 05 фев 2018, 21:20 

Не в сети
Супермодератор
Аватара пользователя
Дата регистрации:
15 фев 2012, 16:44
Возраст: 28
Спасибо: 7223 / 2147
Сообщения: 67702
Год выхода: 2012
Жанр: Ужасы, триллер, детектив
Режиссер: Майкл Дж. Бассетт

В ролях: Эделейд Клеменс, Кит Харингтон, Дебора Кара Ангер, Мартин Донован, Малкольм МакДауэлл, Кэрри-Энн Мосс, Шон Бин, Рада Митчелл, Роберто Кампанелла, Эрин Питт

О фильме: Хизер терзается ночными кошмарами с одиннадцатилетнего возраста и вынуждена со своим отцом постоянно менять место жительства, скрываясь от таинственных сил. Накануне своего восемнадцатого дня рождения Хизер, вернувшись домой, обнаруживает, что её отец исчез. Единственное, что она нашла дома — нарисованный на стене оккультный символ с надписью «отправляйся в Сайлент Хилл».



Страна: США, Канада, Франция
Студия: Lionsgate, Davis Films
Продолжительность: 01:34:30
Перевод: профессиональный (дублированный)
Субтитры: русские, украинские, английские

Формат: MKV
Качество: BDRip 1080p | Open Matte
Видео: MPEG-4 AVC / 12000 kbps / 1920x1080 / 23.976 fps
Звук:
Аудио 1: Russian DTS-ES Audio / 6.1 / 48 kHz / 1536 kbps - Дубляж
Аудио 2: Ukrainian DTS Audio / 5.1 / 48 kHz / 1536 kbps - Дубляж
Аудио 3: English DTS Audio / 5.1 / 48 kHz / 1536 kbps - Оригинал

Format : Matroska
Format version : Version 2
File size : 10.9 GiB
Duration : 1 h 34 min
Overall bit rate : 16.5 Mb/s
Movie name : Silent Hill: Revelation BDRip 1080p | RUS | Open Matte
Encoded date : UTC 2018-02-05 13:23:04
Writing application : mkvmerge v4.9.1 ('Ich will') сборка от Jul 11 2011 23:53:15
Writing library : libebml v1.2.1 + libmatroska v1.1.1

Video
ID : 1
Format : AVC
Format/Info : Advanced Video Codec
Format profile : High@L4.1
Format settings, CABAC : Yes
Format settings, RefFrames : 4 frames
Codec ID : V_MPEG4/ISO/AVC
Duration : 1 h 34 min
Bit rate : 12.0 Mb/s
Width : 1 920 pixels
Height : 1 080 pixels
Display aspect ratio : 16:9
Frame rate mode : Constant
Frame rate : 23.976 (24000/1001) FPS
Color space : YUV
Chroma subsampling : 4:2:0
Bit depth : 8 bits
Scan type : Progressive
Bits/(Pixel*Frame) : 0.241
Stream size : 7.70 GiB (71%)
Title : Сайлент Хилл 2
Writing library : x264 core 125 r2208 d9d2288
Encoding settings : cabac=1 / ref=4 / deblock=1:-1:-1 / analyse=0x3:0x133 / me=umh / subme=10 / psy=1 / psy_rd=1.00:0.00 / mixed_ref=1 / me_range=24 / chroma_me=1 / trellis=2 / 8x8dct=1 / cqm=0 / deadzone=21,11 / fast_pskip=1 / chroma_qp_offset=-2 / threads=6 / lookahead_threads=1 / sliced_threads=0 / nr=0 / decimate=1 / interlaced=0 / bluray_compat=0 / constrained_intra=0 / bframes=1 / b_pyramid=0 / b_adapt=2 / b_bias=0 / direct=3 / weightb=1 / open_gop=0 / weightp=2 / keyint=250 / keyint_min=25 / scenecut=40 / intra_refresh=0 / rc_lookahead=60 / rc=2pass / mbtree=1 / bitrate=12000 / ratetol=1.0 / qcomp=0.60 / qpmin=0 / qpmax=69 / qpstep=4 / cplxblur=20.0 / qblur=0.5 / ip_ratio=1.40 / aq=1:1.00
Language : English
Default : Yes
Forced : No

Audio #1
ID : 2
Format : DTS
Format/Info : Digital Theater Systems
Format profile : ES Matrix / Core
Mode : 16
Format settings, Endianness : Big
Codec ID : A_DTS
Duration : 1 h 34 min
Bit rate mode : Constant
Bit rate : 1 509 kb/s
Channel(s) : 7 channels / 6 channels
Channel positions : Front: L C R, Side: L R, Back: C, LFE / Front: L C R, Side: L R, LFE
Sampling rate : 48.0 kHz
Frame rate : 93.750 FPS (512 SPF)
Bit depth : 16 bits
Compression mode : Lossy
Stream size : 1 020 MiB (9%)
Title : Дубляж
Language : Russian
Default : Yes
Forced : No

Audio #2
ID : 3
Format : DTS
Format/Info : Digital Theater Systems
Mode : 16
Format settings, Endianness : Big
Codec ID : A_DTS
Duration : 1 h 34 min
Bit rate mode : Constant
Bit rate : 1 509 kb/s
Channel(s) : 6 channels
Channel positions : Front: L C R, Side: L R, LFE
Sampling rate : 48.0 kHz
Frame rate : 93.750 FPS (512 SPF)
Bit depth : 16 bits
Compression mode : Lossy
Stream size : 1 020 MiB (9%)
Title : Дубляж
Language : Ukrainian
Default : No
Forced : No

Audio #3
ID : 4
Format : DTS
Format/Info : Digital Theater Systems
Mode : 16
Format settings, Endianness : Big
Codec ID : A_DTS
Duration : 1 h 34 min
Bit rate mode : Constant
Bit rate : 1 509 kb/s
Channel(s) : 6 channels
Channel positions : Front: L C R, Side: L R, LFE
Sampling rate : 48.0 kHz
Frame rate : 93.750 FPS (512 SPF)
Bit depth : 24 bits
Compression mode : Lossy
Stream size : 1 020 MiB (9%)
Title : Оригинал
Language : English
Default : No
Forced : No

Text #1
ID : 5
Format : UTF-8
Codec ID : S_TEXT/UTF8
Codec ID/Info : UTF-8 Plain Text
Title : Full
Language : Russian
Default : No
Forced : No

Text #2
ID : 6
Format : UTF-8
Codec ID : S_TEXT/UTF8
Codec ID/Info : UTF-8 Plain Text
Title : Full
Language : Ukrainian
Default : No
Forced : No

Text #3
ID : 7
Format : UTF-8
Codec ID : S_TEXT/UTF8
Codec ID/Info : UTF-8 Plain Text
Title : SDH
Language : English
Default : No
Forced : No





_________________
Проголосуй за трекер Открытый торрент трекер - RUS-MEDIA.ORG

Проголосуй Открытый торрент трекер - RUS-MEDIA.ORG


Вернуться к началу
 Профиль Отправить личное сообщение  
 
   Похожие торренты   Автор   Торрент   Размер 
В этой теме нет новых непрочитанных сообщений. Сайлент Хилл 2 / Silent Hill: Revelation 3D [ужасы, триллер, детектив, 2012] BDRip-AVC, Dub

salma3

48 | 20

2.18 ГБ

В этой теме нет новых непрочитанных сообщений. Сайлент Хилл / Silent Hill [ужасы, детектив, 2006] WEB-DLRip, Dub [Open Matte]

salma3

63 | 16

1.45 ГБ

В этой теме нет новых непрочитанных сообщений. Сайлент Хилл / Silent Hill [ужасы, детектив, приключения, 2006] WEB-DLRip-AVC, Dub [Open Matte]

salma3

7 | 2

1.45 ГБ

В этой теме нет новых непрочитанных сообщений. Сайлент Хилл / Silent Hill [ужасы, детектив, приключения, 2006] WEB-DLRip-AVC, Dub [Open Matte]

salma3

8 | 0

2.18 ГБ

В этой теме нет новых непрочитанных сообщений. Ноттинг Хилл / Notting Hill [мелодрама, комедия, 1999] WEB-DL 1080p, Dub [Open Matte]

salma3

0 | 0

15.45 ГБ

В этой теме нет новых непрочитанных сообщений. Ноттинг Хилл / Notting Hill [мелодрама, комедия, 1999] WEB-DLRip-AVC, Dub [Open Matte]

salma3

0 | 0

2.36 ГБ

В этой теме нет новых непрочитанных сообщений. Они / They [ужасы, триллер, детектив, 2002] WEB-DL 1080p, Dub [Open Matte]

salma3

5 | 15

9.13 ГБ


Начать новую тему Ответить на тему  [ 1 сообщение ] 




Для Мосгорсуда, Роскомнадзора и рекламодателей:: mosgorsud-torrent[собачка]yandex.ru
cron