Торрент файл
скачать торрент магнет ссылка Добавлен: 30 янв 2018, 22:55
Размер: 4.35 ГБ
Сидеров: 0
Личеров: 0
Статус: (salma3)
Автор

СообщениеДобавлено: 30 янв 2018, 22:55 

Не в сети
Супермодератор
Аватара пользователя
Дата регистрации:
15 фев 2012, 16:44
Возраст: 28
Спасибо: 7199 / 2147
Сообщения: 64840
Год выхода: 2011
Жанр: Драма
Режиссер: Шари Спрингер Берман / Shari Springer Berman, Роберт Пульчини / Robert Pulcini

В ролях: Томас Деккер (Lance Loud), Дайан Лэйн (Pat Loud), Тим Роббинс (Bill Loud), Кейтлин Девер (Michelle Loud), Джеймс Гандольфини (Craig Gilbert), Джонни Симмонс (Kevin Loud), Патрик Фьюджит (Alan Raymond), Кэтлин Куинлен (Mary), Мэтью О’Лири (Cameron), Эмилио Ривера (Watchman)

О фильме:
Закулисная история о первой американской семье, ставшей героями ТВ-реалити шоу.



Страна: США
Продолжительность: 01:30:11.872
Перевод: Профессиональный (многоголосый закадровый) Amedia
Профессиональный (двухголосый закадровый) TOMITOOT

Файл
Кодек: h.264
Качество: BDRip 720p
Видео: 1280x720 (16:9), 23.976 fps, AVC, ~5581 Kbps, 0.253 bits/pixel
Звук:
Русский, 48.0 KHz, AC3, 6 ch, 384 Kbps Amedia
Русский, 48.0 KHz, AC3, 2 ch, 160 Kbps TOMITOOT
Английский, 48.0 KHz, AC3, 6 ch, 640 Kbps
Субтитры:
Английские, PGS
Русские,SRT(UTF-8)

General
Unique ID : 174556822562716008642583974768791777170 (0x83526BD0F30197127EDCC1C32567EF92)
Complete name : D:FILMSPravdivoje_Kino.2011.BDRip720p.mkv
Format : Matroska
Format version : Version 4 / Version 2
File size : 4.35 GiB
Duration : 1 h 30 min
Overall bit rate : 6 903 kb/s
Encoded date : UTC 2018-01-19 21:33:02
Writing application : mkvmerge v20.0.0 ('I Am The Sun') 64-bit
Writing library : libebml v1.3.5 + libmatroska v1.4.8

Video
ID : 1
Format : AVC
Format/Info : Advanced Video Codec
Format profile : High@L4.1
Format settings : CABAC / 9 Ref Frames
Format settings, CABAC : Yes
Format settings, RefFrames : 9 frames
Codec ID : V_MPEG4/ISO/AVC
Duration : 1 h 30 min
Bit rate : 5 694 kb/s
Width : 1 280 pixels
Height : 720 pixels
Display aspect ratio : 16:9
Frame rate mode : Constant
Frame rate : 23.976 (24000/1001) FPS
Color space : YUV
Chroma subsampling : 4:2:0
Bit depth : 8 bits
Scan type : Progressive
Bits/(Pixel*Frame) : 0.258
Stream size : 3.59 GiB (82%)
Writing library : x264 core 152 r2851 ba24899
Encoding settings : cabac=1 / ref=9 / deblock=1:-3:-3 / analyse=0x3:0x133 / me=umh / subme=11 / psy=1 / psy_rd=1.10:0.15 / mixed_ref=1 / me_range=48 / chroma_me=1 / trellis=2 / 8x8dct=1 / cqm=0 / deadzone=21,11 / fast_pskip=0 / chroma_qp_offset=-3 / threads=8 / lookahead_threads=2 / sliced_threads=0 / nr=0 / decimate=0 / interlaced=0 / bluray_compat=0 / constrained_intra=0 / bframes=10 / b_pyramid=2 / b_adapt=2 / b_bias=0 / direct=3 / weightb=1 / open_gop=0 / weightp=2 / keyint=240 / keyint_min=23 / scenecut=40 / intra_refresh=0 / rc_lookahead=60 / rc=crf / mbtree=0 / crf=18.0 / qcomp=0.60 / qpmin=0 / qpmax=69 / qpstep=4 / vbv_maxrate=40000 / vbv_bufsize=50000 / crf_max=0.0 / nal_hrd=none / filler=0 / ip_ratio=1.40 / pb_ratio=1.30 / aq=1:1.00
Default : No
Forced : No
Color range : Limited
Color primaries : BT.709
Transfer characteristics : BT.709
Matrix coefficients : BT.709

Audio #1
ID : 2
Format : AC-3
Format/Info : Audio Coding 3
Codec ID : A_AC3
Duration : 1 h 30 min
Bit rate mode : Constant
Bit rate : 384 kb/s
Channel(s) : 6 channels
Channel positions : Front: L C R, Side: L R, LFE
Sampling rate : 48.0 kHz
Frame rate : 31.250 FPS (1536 SPF)
Bit depth : 16 bits
Compression mode : Lossy
Stream size : 248 MiB (6%)
Title : Amedia
Language : Russian
Service kind : Complete Main
Default : Yes
Forced : No

Audio #2
ID : 3
Format : AC-3
Format/Info : Audio Coding 3
Codec ID : A_AC3
Duration : 1 h 30 min
Bit rate mode : Constant
Bit rate : 160 kb/s
Channel(s) : 2 channels
Channel positions : Front: L R
Sampling rate : 48.0 kHz
Frame rate : 31.250 FPS (1536 SPF)
Bit depth : 16 bits
Compression mode : Lossy
Stream size : 103 MiB (2%)
Title : TOMITOOT
Language : Russian
Service kind : Complete Main
Default : No
Forced : No

Audio #3
ID : 4
Format : AC-3
Format/Info : Audio Coding 3
Codec ID : A_AC3
Duration : 1 h 30 min
Bit rate mode : Constant
Bit rate : 640 kb/s
Channel(s) : 6 channels
Channel positions : Front: L C R, Side: L R, LFE
Sampling rate : 48.0 kHz
Frame rate : 31.250 FPS (1536 SPF)
Bit depth : 16 bits
Compression mode : Lossy
Stream size : 413 MiB (9%)
Language : English
Service kind : Complete Main
Default : No
Forced : No

Text #1
ID : 5
Format : PGS
Muxing mode : zlib
Codec ID : S_HDMV/PGS
Codec ID/Info : Picture based subtitle format used on BDs/HD-DVDs
Duration : 1 h 25 min
Bit rate : 53.1 kb/s
Count of elements : 2840
Stream size : 32.5 MiB (1%)
Language : English
Default : No
Forced : No

Text #2
ID : 6
Format : UTF-8
Codec ID : S_TEXT/UTF8
Codec ID/Info : UTF-8 Plain Text
Duration : 1 h 27 min
Bit rate : 123 b/s
Count of elements : 907
Stream size : 79.1 KiB (0%)
Language : Russian
Default : No
Forced : No

Menu
00:00:00.000 : en:00:00:00.000
00:12:08.436 : en:00:12:08.436
00:21:54.438 : en:00:21:54.438
00:42:33.676 : en:00:42:33.676
00:49:49.153 : en:00:49:49.153
00:56:13.912 : en:00:56:13.912
01:11:06.637 : en:01:11:06.637
01:18:54.730 : en:01:18:54.730
01:27:55.270 : en:01:27:55.270



Релиз от: Temperest


_________________
Проголосуй за трекер Открытый торрент трекер - RUS-MEDIA.ORG

Проголосуй Открытый торрент трекер - RUS-MEDIA.ORG


Вернуться к началу
 Профиль Отправить личное сообщение  
 
   Похожие торренты   Автор   Торрент   Размер 
В этой теме нет новых непрочитанных сообщений. Правда о малютке Донж / La vérité sur Bébé Donge [триллер, драма, 1952] BDRip, Avo

salma3

0 | 2

1.45 ГБ

В этой теме нет новых непрочитанных сообщений. Action Ou Vérité / Правда или желание (Fred Coppula Prod) [2016 г., All Sex, Interracial, Anal, Oral, Big Asses, Big Boobs, Big Dicks, Groupe, Orgie, Big Dick, Big Tits, Blowjob,, WEB-DL]

salma3

29 | 8

1.91 ГБ

В этой теме нет новых непрочитанных сообщений. Недетское кино / Not Another Teen Movie [комедия, 2001] BDRip 720p, Mvo+Avo+Sub

salma3

62 | 19

4.13 ГБ

В этой теме нет новых непрочитанных сообщений. Экстремальное кино / Extreme Movie [комедия, 2008] BDRip 720p, Dvo+Sub

salma3

120 | 26

3.93 ГБ

В этой теме нет новых непрочитанных сообщений. Вот я какой / That's What I Am [Драма, 2011] BDRip 720p, Mvo+Sub

salma3

60 | 2

5.59 ГБ

В этой теме нет новых непрочитанных сообщений. Catarina Petrov Passion Cinema (2016) 1080p

salma3

7 | 2

1.24 ГБ

В этой теме нет новых непрочитанных сообщений. Снупи и мелочь пузатая в кино / The Peanuts Movie [мультфильм, комедия, приключения, семейный, 2015] BDRip 720p, Avo+Sub

salma3

140 | 35

3.29 ГБ


Начать новую тему Ответить на тему  [ 1 сообщение ] 




Для Мосгорсуда, Роскомнадзора и рекламодателей:: mosgorsud-torrent[собачка]yandex.ru
cron