Торрент файл
скачать торрент магнет ссылка Добавлен: 28 янв 2018, 18:40
Размер: 7.9 ГБ
Сидеров: 0
Личеров: 0
Статус: (salma3)
Автор

СообщениеДобавлено: 28 янв 2018, 18:40 

Не в сети
Супермодератор
Аватара пользователя
Дата регистрации:
15 фев 2012, 16:44
Возраст: 29
Спасибо: 7332 / 2147
Сообщения: 73912
Год выпуска: 1973
Жанр: драма, криминал, биография
Режиссер: Франклин Дж. Шаффнер

В ролях: Стив МакКуин (Henri «Papillon» Charriere), Дастин Хоффман (Louis Dega), Виктор Джори (Indian Chief), Дон Гордон (Julot),

О фильме:
За убийство, которое он не совершал, взломщик сейфов Анри Шарьер приговорен к пожизненному заключению и отправлен на каторгу. Прозванный «Мотыльком» из-за того, что на его груди вытатуирован этот символ свободы, Анри совершает несколько попыток побега. В наказание власти надолго сажают его в карцер, а затем отправляют во Французскую Гвиану на остров Дьявола, со всех сторон окруженный океаном Из этой самой страшной каторжной тюрьмы не удавалось бежать ни одному заключенному. Но ничто не может заставить Анри пасть духом и сломить его решимость вырваться на волю…



Страна: Франция, США
Продолжительность: 02:30:47
Перевод: Профессиональный (многоголосый, закадровый) OPT + Профессиональный (многоголосый, закадровый) DVD Магия + Профессиональный (двухголосый, закадровый) П.Гланц и И.Королёва + Авторский (одноголосый, закадровый) А.Гаврилов + Авторский (одноголосый, закадровый) М.Иванов + Авторский (одноголосый, закадровый) Ю.Товбин

Файл
Качество: BDRip 720p
Формат: Matroska
Видео: 1280x534 at 23.976 fps, x264, ~4982 kbps avg
Аудио#1: Russian: 48 kHz, AC3, 2/0 (L,R) ch, ~192 kbps avg |Многоголосый закадровый, OPT|
Аудио#2: Russian: 48 kHz, AC3, 2/0 (L,R) ch, ~192 kbps avg |Многоголосый закадровый, DVD Магия|
Аудио#3: Russian: 48 kHz, AC3, 3/2 (L,C,R,l,r) + LFE ch, ~448 kbps avg |Двухголосый закадровый, П.Гланц и И.Королёва|
Аудио#4: Russian: 48 kHz, AC3, 3/2 (L,C,R,l,r) + LFE ch, ~448 kbps avg |Авторский, А.Гаврилов|
Аудио#5: Russian: 48 kHz, AC3, 3/2 (L,C,R,l,r) + LFE ch, ~448 kbps avg |Авторский, М.Иванов|
Аудио#6: Russian: 48 kHz, AC3, 2/0 (L,R) ch, ~192 kbps avg |Авторский, Ю.Товбин|
Аудио#7: English: 48 kHz, AC3, 3/2 (L,C,R,l,r) + LFE ch, ~448 kbps avg
Субтитры: Russian, English
***Сохранены оригинальные главы как на Blu-ray.
***Релиз: msltel.
Фильм снят по мотивам романа Анри Шарьера «Мотылёк» (Papillon, 1969).
Для Стива МакКуина это была уже вторая тюремная драма, в которой он сыграл героя-беглеца: первой был фильм «Большой побег» (1963).
В оригинальном романе Луи Дега - второстепенный персонаж, остающийся за пределами сюжета уже в первой половине книги. В фильме же Дега стал одним из главных героев.
Создавая образ Луи Дега, Дастин Хоффман вдохновлялся образом соавтора сценария фильма Далтона Трамбо. Особенно это касается отчужденности и застенчивости легендарного сценариста, которые просто поразили Хоффмана при знакомстве с Трамбо.
Чтобы нормально видеть сквозь толстые стекла очков своего героя, Дастину Хоффману пришлось носить специальные контактные линзы.
Несмотря на то что оригинальная книга Анри Шарьера является автобиографической, французы во Французской Гвиане единодушно утверждают, что большая часть истории Папильона - не более чем художественный вымысел.
Документально засвидетельствовано, что Анри Шарьер был заключен в тюрьму Сан-Лоран и, возможно, сбежал оттуда, однако он никогда не был в заключении на знаменитом острове Дьявола, хотя тюремное поселение на этом острове действительно существовало.
И книга, и фильм представляют берега острова Дьявола как сплошные высокие скалы. На самом деле берега острова Дьявола (ныне известного как остров Спасения) хотя и действительно скалистые, но пологие.
Когда Папильон в первый раз попадает в карцер, его кусает летучая мышь-вампир. Рана, оставленная ею, выглядит как два маленьких отверстия, из которых сочится кровь, - точь-в-точь как в мистических фильмах о вампирах. Однако проблема в том, что летучие мыши-вампиры, хотя они действительно пьют кровь, действуют при этом несколько иначе, нежели их собратья из легенд. Подлетев к спящему живому существу, летучая мышь-вампир не кусает жертву клыками, которых у рукокрылых попросту нет, а срезает у жертвы маленький кусочек кожи острыми резцами, после чего шершавым языком углубляет ранку. Слюна этих нетопырей содержит химикат, который оказывает обезболивающий эффект, а также препятствует свертываемости крови. После этого летучие мыши парят над жертвой, слизывая капли крови, которые сочатся из ранки.
[*]В финальных кадрах, когда Анри Шарьер плывет на мешке с кокосами, сквозь воду можно разглядеть водолаза в синих шортах и ластах, который придерживает мешок под водой.
Общее
Уникальный идентификатор : 170787817585636151612141112130016321285 (0x807C898619E9439298278C6CEE8F1F05)
Полное имя : Мотылёк.1973.BDRip.720p by msltel.mkv
Формат : Matroska
Версия формата : Version 4 / Version 2
Размер файла : 7,90 Гбайт
Продолжительность : 2 ч. 30 м.
Общий поток : 7499 Кбит/сек
Название фильма : Rip by msltel
Дата кодирования : UTC 2018-01-25 12:26:19
Программа кодирования : mkvmerge v8.2.0 ('World of Adventure') 64bit
Библиотека кодирования : libebml v1.3.1 + libmatroska v1.4.2

Видео
Идентификатор : 1
Формат : AVC
Формат/Информация : Advanced Video Codec
Профиль формата : High@L4.1
Параметр CABAC формата : Да
Параметр ReFrames формата : 9 кадров
Идентификатор кодека : V_MPEG4/ISO/AVC
Продолжительность : 2 ч. 30 м.
Битрейт : 4982 Кбит/сек
Ширина : 1280 пикселей
Высота : 534 пикселя
Соотношение сторон : 2,40:1
Режим частоты кадров : Постоянный
Частота кадров : 23,976 кадра/сек
Цветовое пространство : YUV
Субдискретизация насыщенности : 4:2:0
Битовая глубина : 8 бит
Тип развёртки : Прогрессивная
Бит/(Пиксели*Кадры) : 0.304
Размер потока : 5,25 Гбайт (66%)
Библиотека кодирования : x264 core 146 r2538 121396c
Настройки программы : cabac=1 / ref=9 / deblock=1:-3:-2 / analyse=0x3:0x113 / me=umh / subme=11 / psy=1 / psy_rd=1.00:0.15 / mixed_ref=1 / me_range=32 / chroma_me=1 / trellis=2 / 8x8dct=1 / cqm=0 / deadzone=21,11 / fast_pskip=0 / chroma_qp_offset=-3 / threads=6 / lookahead_threads=1 / sliced_threads=0 / nr=0 / decimate=1 / interlaced=0 / bluray_compat=0 / constrained_intra=0 / bframes=8 / b_pyramid=2 / b_adapt=2 / b_bias=0 / direct=1 / weightb=1 / open_gop=0 / weightp=2 / keyint=230 / keyint_min=23 / scenecut=40 / intra_refresh=0 / rc_lookahead=40 / rc=crf / mbtree=0 / crf=18.1 / qcomp=0.60 / qpmin=0 / qpmax=69 / qpstep=4 / vbv_maxrate=62500 / vbv_bufsize=78125 / crf_max=0.0 / nal_hrd=none / filler=0 / ip_ratio=1.40 / pb_ratio=1.30 / aq=1:1.00
Язык : English
Default : Да
Forced : Нет

Аудио #1
Идентификатор : 2
Формат : AC-3
Формат/Информация : Audio Coding 3
Расширение режима : CM (complete main)
Параметр Endianness формата : Big
Идентификатор кодека : A_AC3
Продолжительность : 2 ч. 30 м.
Вид битрейта : Постоянный
Битрейт : 192 Кбит/сек
Каналы : 2 канала
Расположение каналов : Front: L R
Частота : 48,0 КГц
Битовая глубина : 16 бит
Метод сжатия : С потерями
Размер потока : 207 Мбайт (3%)
Заголовок : MVO.OPT
Язык : Russian
Default : Да
Forced : Нет

Аудио #2
Идентификатор : 3
Формат : AC-3
Формат/Информация : Audio Coding 3
Расширение режима : CM (complete main)
Параметр Endianness формата : Big
Идентификатор кодека : A_AC3
Продолжительность : 2 ч. 30 м.
Вид битрейта : Постоянный
Битрейт : 192 Кбит/сек
Каналы : 2 канала
Расположение каналов : Front: L R
Частота : 48,0 КГц
Битовая глубина : 16 бит
Метод сжатия : С потерями
Размер потока : 207 Мбайт (3%)
Заголовок : MVO.DVD Magic
Язык : Russian
Default : Нет
Forced : Нет

Аудио #3
Идентификатор : 4
Формат : AC-3
Формат/Информация : Audio Coding 3
Расширение режима : CM (complete main)
Параметр Endianness формата : Big
Идентификатор кодека : A_AC3
Продолжительность : 2 ч. 30 м.
Вид битрейта : Постоянный
Битрейт : 448 Кбит/сек
Каналы : 6 каналов
Расположение каналов : Front: L C R, Side: L R, LFE
Частота : 48,0 КГц
Битовая глубина : 16 бит
Метод сжатия : С потерями
Размер потока : 483 Мбайт (6%)
Заголовок : Пётр Гланц и Инна Королёва
Язык : Russian
Default : Нет
Forced : Нет

Аудио #4
Идентификатор : 5
Формат : AC-3
Формат/Информация : Audio Coding 3
Расширение режима : CM (complete main)
Параметр Endianness формата : Big
Идентификатор кодека : A_AC3
Продолжительность : 2 ч. 30 м.
Вид битрейта : Постоянный
Битрейт : 448 Кбит/сек
Каналы : 6 каналов
Расположение каналов : Front: L C R, Side: L R, LFE
Частота : 48,0 КГц
Битовая глубина : 16 бит
Метод сжатия : С потерями
Размер потока : 483 Мбайт (6%)
Заголовок : Андрей Гаврилов
Язык : Russian
Default : Нет
Forced : Нет

Аудио #5
Идентификатор : 6
Формат : AC-3
Формат/Информация : Audio Coding 3
Расширение режима : CM (complete main)
Параметр Endianness формата : Big
Идентификатор кодека : A_AC3
Продолжительность : 2 ч. 30 м.
Вид битрейта : Постоянный
Битрейт : 448 Кбит/сек
Каналы : 6 каналов
Расположение каналов : Front: L C R, Side: L R, LFE
Частота : 48,0 КГц
Битовая глубина : 16 бит
Метод сжатия : С потерями
Размер потока : 483 Мбайт (6%)
Заголовок : Михаил Иванов
Язык : Russian
Default : Нет
Forced : Нет

Аудио #6
Идентификатор : 7
Формат : AC-3
Формат/Информация : Audio Coding 3
Расширение режима : CM (complete main)
Параметр Endianness формата : Big
Идентификатор кодека : A_AC3
Продолжительность : 2 ч. 30 м.
Вид битрейта : Постоянный
Битрейт : 192 Кбит/сек
Каналы : 2 канала
Расположение каналов : Front: L R
Частота : 48,0 КГц
Битовая глубина : 16 бит
Метод сжатия : С потерями
Размер потока : 207 Мбайт (3%)
Заголовок : Юрий Товбин
Язык : Russian
Default : Нет
Forced : Нет

Аудио #7
Идентификатор : 8
Формат : AC-3
Формат/Информация : Audio Coding 3
Расширение режима : CM (complete main)
Параметр Endianness формата : Big
Идентификатор кодека : A_AC3
Продолжительность : 2 ч. 30 м.
Вид битрейта : Постоянный
Битрейт : 448 Кбит/сек
Каналы : 6 каналов
Расположение каналов : Front: L C R, Side: L R, LFE
Частота : 48,0 КГц
Битовая глубина : 16 бит
Метод сжатия : С потерями
Размер потока : 483 Мбайт (6%)
Заголовок : original
Язык : English
Default : Нет
Forced : Нет

Текст #1
Идентификатор : 9
Формат : UTF-8
Идентификатор кодека : S_TEXT/UTF8
Идентификатор кодека/Информация : UTF-8 Plain Text
Заголовок : русские (на места без перевода)
Язык : Russian
Default : Да
Forced : Да

Текст #2
Идентификатор : 10
Формат : UTF-8
Идентификатор кодека : S_TEXT/UTF8
Идентификатор кодека/Информация : UTF-8 Plain Text
Заголовок : русские
Язык : Russian
Default : Нет
Forced : Нет

Текст #3
Идентификатор : 11
Формат : UTF-8
Идентификатор кодека : S_TEXT/UTF8
Идентификатор кодека/Информация : UTF-8 Plain Text
Заголовок : английские
Язык : English
Default : Нет
Forced : Нет

Меню
00:00:00.000 : :Chapter 01
00:03:58.321 : :Chapter 02
00:08:21.083 : :Chapter 03
00:10:31.380 : :Chapter 04
00:15:24.006 : :Chapter 05
00:16:58.642 : :Chapter 06
00:22:14.541 : :Chapter 07
00:25:40.413 : :Chapter 08
00:30:16.815 : :Chapter 09
00:35:01.933 : :Chapter 10
00:40:35.850 : :Chapter 11
00:43:53.005 : :Chapter 12
00:45:50.456 : :Chapter 13
00:51:21.953 : :Chapter 14
00:56:38.561 : :Chapter 15
00:58:26.377 : :Chapter 16
01:07:21.954 : :Chapter 17
01:09:26.662 : :Chapter 18
01:12:26.759 : :Chapter 19
01:17:45.911 : :Chapter 20
01:21:02.691 : :Chapter 21
01:24:08.334 : :Chapter 22
01:26:05.535 : :Chapter 23
01:32:59.991 : :Chapter 24
01:35:57.417 : :Chapter 25
01:37:55.953 : :Chapter 26
01:42:36.358 : :Chapter 27
01:44:18.627 : :Chapter 28
01:47:37.200 : :Chapter 29
01:51:02.238 : :Chapter 30
01:54:34.742 : :Chapter 31
02:02:55.910 : :Chapter 32
02:07:06.827 : :Chapter 33
02:10:31.990 : :Chapter 34
02:14:08.623 : :Chapter 35
02:16:37.147 : :Chapter 36
02:20:06.522 : :Chapter 37
02:24:07.472 : :Chapter 38
02:27:12.990 : :Chapter 39
02:30:46.829 : :Chapter 40


_________________
Проголосуй за трекер Открытый торрент трекер - RUS-MEDIA.ORG

Проголосуй Открытый торрент трекер - RUS-MEDIA.ORG


Вернуться к началу
 Профиль Отправить личное сообщение  
 
   Похожие торренты   Автор   Торрент   Размер 
В этой теме нет новых непрочитанных сообщений. Мотылек / Papillon [драма, криминал, биография, 1973] BDRip 720p, Mvo

salma3

0 | 0

12.66 ГБ

В этой теме нет новых непрочитанных сообщений. Гитлер: Последние десять дней / Hitler: The Last Ten Days [драма, военный, биография, история, 1973] BDRip 720p, Avo

salma3

27 | 9

6.73 ГБ

В этой теме нет новых непрочитанных сообщений. Человек-мотылек / The Mothman Prophecies [Триллер, драма, реальные события, экранизация, 2002] BDRip 720p, Dub+Avo+Mvo+Sub

salma3

96 | 33

7.49 ГБ

В этой теме нет новых непрочитанных сообщений. От семи лет и выше / The Seven-Ups [Боевик, драма, криминал, гангстерский, 1973] BDRip 720p, Avo+Sub

salma3

29 | 28

4.38 ГБ

В этой теме нет новых непрочитанных сообщений. День Шакала / The Day of the Jackal [триллер, драма, криминал, 1973] BDRip 720p, Mvo+Dvo+Avo+Sub

salma3

41 | 44

6.94 ГБ

В этой теме нет новых непрочитанных сообщений. Лечение шоком / Traitement de choc [триллер, драма, криминал, 1973] BDRip 720p, Mvo

salma3

0 | 0

4.37 ГБ

В этой теме нет новых непрочитанных сообщений. Двое в городе / Deux hommes dans la ville [драма, криминал, 1973] BDRip 720p, Dub

salma3

10 | 4

9.6 ГБ


Начать новую тему Ответить на тему  [ 1 сообщение ] 




Для Мосгорсуда, Роскомнадзора и рекламодателей:: mosgorsud-torrent[собачка]yandex.ru
cron