Торрент файл
скачать торрент магнет ссылка Добавлен: 25 янв 2018, 12:25
Размер: 3.92 ГБ
Сидеров: 0
Личеров: 0
Статус: (salma3)
Автор

СообщениеДобавлено: 25 янв 2018, 12:25 

Не в сети
Супермодератор
Аватара пользователя
Дата регистрации:
15 фев 2012, 16:44
Возраст: 29
Спасибо: 7379 / 2147
Сообщения: 76077
Произведено: США
Категория: ужасы, мелодрама, комедия
Режиссер: Анна Биллер

В главных ролях: Саманта Робинсон, Джан Кис, Лаура Уоддэлл, Джефф Парис, Джаред Санфорд, Роберт Сили, Дженнифер Ингрум, Рэнди Эванс, Клайв Эшборн, Лили Хоуллман

О фильме: В некоем странном мире, стилизованном под Америку 60-х годов, молодая ведьма очень хочет любить и быть любимой. А для этого все средства хороши. Она выбирает самых отборных самцов и использует всё свои заговоры и женские штучки, чтобы приворожить очередного красавчика. Но вот беда - сильные снаружи, слабые внутри они не выдерживают чар хрупкой женщины и умирают.



Файл
Качество: BDRip 720p
Видео данные: MKV, 1280x696 (1.85:1), 23.976 fps, 4000 Кбит/с
Аудио данные: AC3, 2 ch, 640 Кбит/с
Перевод: Любительский многоголосый (GreenРай Studio)
Продолжительность: 02:01:23

Присутствует реклама!

General
Unique ID : 238638036425210799454539714189719055419 (0xB3880396F3F19988AFE00B2719292C3B)
Complete name : D:ВидеоThe.Love.Witch.2016.P.BDRip.720p.GreenРай Studio.mkv
Format : Matroska
Format version : Version 4 / Version 2
File size : 3.92 GiB
Duration : 2h 1mn
Overall bit rate mode : Constant
Overall bit rate : 4 621 Kbps
Encoded date : UTC 2018-01-24 12:53:47
Writing application : mkvmerge v8.3.0 ('Over the Horizon') 64bit
Writing library : libebml v1.3.1 + libmatroska v1.4.2
DURATION : 02:01:23.044000000
NUMBER_OF_FRAMES : 174621
NUMBER_OF_BYTES : 3622681271
_STATISTICS_WRITING_APP : mkvmerge v8.3.0 ('Over the Horizon') 64bit
_STATISTICS_WRITING_DATE_UT : 2018-01-24 12:53:47
_STATISTICS_TAGS : BPS DURATION NUMBER_OF_FRAMES NUMBER_OF_BYTES

Video
ID : 1
Format : AVC
Format/Info : Advanced Video Codec
Format profile : Main@L3.1
Format settings, CABAC : Yes
Format settings, ReFrames : 3 frames
Format settings, GOP : M=4, N=15
Codec ID : V_MPEG4/ISO/AVC
Duration : 2h 1mn
Bit rate mode : Constant
Bit rate : 4 000 Kbps
Width : 1 280 pixels
Height : 696 pixels
Display aspect ratio : 1.85:1
Frame rate mode : Constant
Frame rate : 23.976 fps
Standard : NTSC
Color space : YUV
Chroma subsampling : 4:2:0
Bit depth : 8 bits
Scan type : Progressive
Bits/(Pixel*Frame) : 0.187
Stream size : 3.30 GiB (84%)
Language : English
Default : Yes
Forced : No
Color range : Limited

Audio
ID : 2
Format : AC-3
Format/Info : Audio Coding 3
Mode extension : CM (complete main)
Format settings, Endianness : Big
Codec ID : A_AC3
Duration : 2h 1mn
Bit rate mode : Constant
Bit rate : 640 Kbps
Channel(s) : 2 channels
Channel positions : Front: L R
Sampling rate : 48.0 KHz
Compression mode : Lossy
Stream size : 556 MiB (14%)
Default : Yes
Forced : No


Релиз от:


_________________
Проголосуй за трекер Открытый торрент трекер - RUS-MEDIA.ORG

Проголосуй Открытый торрент трекер - RUS-MEDIA.ORG


Вернуться к началу
 Профиль Отправить личное сообщение  
 
   Похожие торренты   Автор   Торрент   Размер 
В этой теме нет новых непрочитанных сообщений. Ведьма любви / The Love Witch [ужасы, мелодрама, комедия, 2016] HDRip, Mvo

salma3

14 | 4

1.46 ГБ

В этой теме нет новых непрочитанных сообщений. Ведьма любви / The Love Witch [ужасы, комедия, 2016] WEB-DLRip, Mvo

salma3

943 | 363

2.05 ГБ

В этой теме нет новых непрочитанных сообщений. Ведьма любви / The Love Witch [ужасы, комедия, 2016] HDRip, Dvo

salma3

157 | 41

1.37 ГБ

В этой теме нет новых непрочитанных сообщений. Ведьма любви / The Love Witch [ужасы, комедия, 2016] WEB-DLRip 720р, Mvo

salma3

135 | 69

3.93 ГБ

В этой теме нет новых непрочитанных сообщений. Ведьма любви / The Love Witch [ужасы, комедия, 2016] WEB-DLRip 1080р, Mvo

salma3

379 | 140

4.62 ГБ

В этой теме нет новых непрочитанных сообщений. Ведьма из Блэр: Новая глава / Blair Witch [Ужасы, триллер, 2016] BDRip 720p, Dub+Avo+Sub [Лицензия]

salma3

67 | 13

3.26 ГБ

В этой теме нет новых непрочитанных сообщений. Ведьма из Блэр: Новая глава / Blair Witch [Ужасы, триллер, 2016] BDRip-AVC, Dub+Sub [Лицензия]

salma3

24 | 14

2.68 ГБ


Начать новую тему Ответить на тему  [ 1 сообщение ] 




Для Мосгорсуда, Роскомнадзора и рекламодателей:: mosgorsud-torrent[собачка]yandex.ru
cron