Торрент файл
скачать торрент магнет ссылка Добавлен: 24 янв 2018, 12:31
Размер: 3.84 ГБ
Сидеров: 0
Личеров: 0
Статус: (salma3)
Автор

СообщениеДобавлено: 24 янв 2018, 12:31 

Не в сети
Супермодератор
Аватара пользователя
Дата регистрации:
15 фев 2012, 16:44
Возраст: 29
Спасибо: 7380 / 2147
Сообщения: 76322
Производство: США, Cannon Films
Жанр: Боевик, Триллер
Режиссер: Джозеф Зито
Актеры: Чак Норрис, Ричард Линч, Мелисса Профет, Александр Зейл, Алекс Колон, Эдди Джонс, Джон Де Вриз, Джеймс О’ Салливан, Билли Драго, Хайме Санчес

Описание:
Отставной агент ЦРУ вынужден вернуться в строй после высадки во Флориде советских террористов, грозящей захватом всей страны. Тем более что наконец-то предоставляется возможность уничтожить давнего врага - агента Михаила Ростова. Но и советский шпион тоже хочет поквитаться со своим старым знакомым.



Релиз от: K.E.N (NNM-CLUB)
Продолжительность: 01:47:40
Качество видео: BDRip-AVC
Перевод: Профессиональный (многоголосый, закадровый), авторский (одноголосый, закадровый)
Язык субтитров: Английский
Вид субтитров: Вшитые отключаемые

Видео: AVC/H.264, 1024x556, ~3500 Kbps
Аудио #1: АС3, 2 ch, 192 Кбит/с | Профессиональный многоголосый (Петербург 5-й канал)
Аудио #2: АС3, 2 ch, 192 Кбит/с | Профессиональный многоголосый (2х2)
Аудио #3: АС3, 6 ch, 448 Кбит/с | Авторский (В.Горчаков)
Аудио #4: АС3, 2 ch, 192 Кбит/с | Авторский (А.Гаврилов)
Аудио #5: АС3, 2 ch, 192 Кбит/с | Авторский (Ю.Живов)
Аудио #6: АС3, 6 ch, 384 Кбит/с | оригинал

Формат : Matroska
Версия формата : Version 2
Размер файла : 3,84 Гбайт
Продолжительность : 1 ч. 47 м.
Общий поток : 5100 Кбит/сек
Дата кодирования : UTC 2016-04-09 01:38:01
Программа кодирования : mkvmerge v5.3.0 ('I could have danced') built on Feb 9 2012 10:38:07
Библиотека кодирования : libebml v1.2.3 + libmatroska v1.3.0
Attachment : Yes

Видео
Идентификатор : 1
Формат : AVC
Формат/Информация : Advanced Video Codec
Профиль формата : High@L4.1
Параметр CABAC формата : Да
Параметр ReFrames формата : 10 кадров
Идентификатор кодека : V_MPEG4/ISO/AVC
Продолжительность : 1 ч. 47 м.
Битрейт : 3500 Кбит/сек
Ширина : 1024 пикселя
Высота : 556 пикселей
Соотношение сторон : 1,85:1
Режим частоты кадров : Постоянный
Частота кадров : 23,976 кадра/сек
Цветовое пространство : YUV
Субдискретизация насыщенности : 4:2:0
Битовая глубина : 8 бит
Тип развёртки : Прогрессивная
Бит/(Пиксели*Кадры) : 0.256
Размер потока : 2,56 Гбайт (67%)
Библиотека кодирования : x264 core 146 r2538 121396c
Настройки программы : cabac=1 / ref=10 / deblock=1:-3:-3 / analyse=0x3:0x133 / me=umh / subme=11 / psy=1 / psy_rd=1.00:0.15 / mixed_ref=1 / me_range=32 / chroma_me=1 / trellis=2 / 8x8dct=1 / cqm=0 / deadzone=21,11 / fast_pskip=0 / chroma_qp_offset=-3 / threads=12 / lookahead_threads=2 / sliced_threads=0 / nr=0 / decimate=0 / interlaced=0 / bluray_compat=0 / constrained_intra=0 / bframes=8 / b_pyramid=2 / b_adapt=2 / b_bias=0 / direct=3 / weightb=1 / open_gop=0 / weightp=2 / keyint=240 / keyint_min=23 / scenecut=40 / intra_refresh=0 / rc=2pass / mbtree=0 / bitrate=3500 / ratetol=1.0 / qcomp=0.60 / qpmin=0 / qpmax=69 / qpstep=4 / cplxblur=20.0 / qblur=0.5 / ip_ratio=1.40 / pb_ratio=1.30 / aq=1:0.90
Язык : English
Default : Да
Forced : Нет

Аудио #1
Идентификатор : 2
Формат : AC-3
Формат/Информация : Audio Coding 3
Расширение режима : CM (complete main)
Параметр Endianness формата : Big
Идентификатор кодека : A_AC3
Продолжительность : 1 ч. 47 м.
Вид битрейта : Постоянный
Битрейт : 192 Кбит/сек
Каналы : 2 канала
Расположение каналов : Front: L R
Частота : 48,0 КГц
Битовая глубина : 16 бит
Метод сжатия : С потерями
Размер потока : 148 Мбайт (4%)
Заголовок : Профессиональный многоголосый (Петербург 5-й канал)
Язык : Russian
Default : Да
Forced : Нет

Аудио #2
Идентификатор : 3
Формат : AC-3
Формат/Информация : Audio Coding 3
Расширение режима : CM (complete main)
Параметр Endianness формата : Big
Идентификатор кодека : A_AC3
Продолжительность : 1 ч. 47 м.
Вид битрейта : Постоянный
Битрейт : 192 Кбит/сек
Каналы : 2 канала
Расположение каналов : Front: L R
Частота : 48,0 КГц
Битовая глубина : 16 бит
Метод сжатия : С потерями
Размер потока : 148 Мбайт (4%)
Заголовок : Профессиональный многоголосый (2х2)
Язык : Russian
Default : Нет
Forced : Нет

Аудио #3
Идентификатор : 4
Формат : AC-3
Формат/Информация : Audio Coding 3
Расширение режима : CM (complete main)
Параметр Endianness формата : Big
Идентификатор кодека : A_AC3
Продолжительность : 1 ч. 47 м.
Вид битрейта : Постоянный
Битрейт : 448 Кбит/сек
Каналы : 6 каналов
Расположение каналов : Front: L C R, Side: L R, LFE
Частота : 48,0 КГц
Битовая глубина : 16 бит
Метод сжатия : С потерями
Размер потока : 345 Мбайт (9%)
Заголовок : Авторский (В.Горчаков)
Язык : Russian
Default : Нет
Forced : Нет

Аудио #4
Идентификатор : 5
Формат : AC-3
Формат/Информация : Audio Coding 3
Расширение режима : CM (complete main)
Параметр Endianness формата : Big
Идентификатор кодека : A_AC3
Продолжительность : 1 ч. 47 м.
Вид битрейта : Постоянный
Битрейт : 192 Кбит/сек
Каналы : 2 канала
Расположение каналов : Front: L R
Частота : 48,0 КГц
Битовая глубина : 16 бит
Метод сжатия : С потерями
Размер потока : 148 Мбайт (4%)
Заголовок : Авторский (А.Гаврилов)
Язык : Russian
Default : Нет
Forced : Нет

Аудио #5
Идентификатор : 6
Формат : AC-3
Формат/Информация : Audio Coding 3
Расширение режима : CM (complete main)
Параметр Endianness формата : Big
Идентификатор кодека : A_AC3
Продолжительность : 1 ч. 47 м.
Вид битрейта : Постоянный
Битрейт : 192 Кбит/сек
Каналы : 2 канала
Расположение каналов : Front: L R
Частота : 48,0 КГц
Битовая глубина : 16 бит
Метод сжатия : С потерями
Размер потока : 148 Мбайт (4%)
Заголовок : Авторский (Ю.Живов)
Язык : Russian
Default : Нет
Forced : Нет

Аудио #6
Идентификатор : 7
Формат : AC-3
Формат/Информация : Audio Coding 3
Расширение режима : CM (complete main)
Параметр Endianness формата : Big
Идентификатор кодека : A_AC3
Продолжительность : 1 ч. 47 м.
Вид битрейта : Постоянный
Битрейт : 384 Кбит/сек
Каналы : 6 каналов
Расположение каналов : Front: L C R, Side: L R, LFE
Частота : 48,0 КГц
Битовая глубина : 16 бит
Метод сжатия : С потерями
Размер потока : 296 Мбайт (8%)
Заголовок : оригинал
Язык : English
Default : Нет
Forced : Нет

Текст #1
Идентификатор : 8
Формат : UTF-8
Идентификатор кодека : S_TEXT/UTF8
Идентификатор кодека/Информация : UTF-8 Plain Text
Заголовок : SDH
Язык : English
Default : Нет
Forced : Нет

Текст #2
Идентификатор : 9
Формат : UTF-8
Идентификатор кодека : S_TEXT/UTF8
Идентификатор кодека/Информация : UTF-8 Plain Text
Заголовок : force
Язык : English
Default : Нет
Forced : Нет

Текст #3
Идентификатор : 10
Формат : UTF-8
Идентификатор кодека : S_TEXT/UTF8
Идентификатор кодека/Информация : UTF-8 Plain Text
Язык : English
Default : Нет
Forced : Нет

Меню
00:00:00.000 : :Chapter 01
00:09:08.088 : :Chapter 02
00:17:57.576 : :Chapter 03
00:28:06.266 : :Chapter 04
00:36:40.697 : :Chapter 05
00:47:41.817 : :Chapter 06
01:02:12.144 : :Chapter 07
01:11:11.225 : :Chapter 08
01:19:16.292 : :Chapter 09
01:27:35.207 : :Chapter 10
01:34:09.060 : :Chapter 11
01:41:29.875 : :Chapter 12


_________________
Проголосуй за трекер Открытый торрент трекер - RUS-MEDIA.ORG

Проголосуй Открытый торрент трекер - RUS-MEDIA.ORG


Вернуться к началу
 Профиль Отправить личное сообщение  
 
   Похожие торренты   Автор   Торрент   Размер 
В этой теме нет новых непрочитанных сообщений. Вторжение в США / Invasion U.S.A. [боевик, триллер, 1985] BDRip 720p, Mvo

salma3

0 | 0

11.79 ГБ

В этой теме нет новых непрочитанных сообщений. Вторжение в США / Invasion U.S.A. [Боевик, 1985] BDRip 1080p, Mvo+Dvo+Avo+Sub

salma3

50 | 64

12.75 ГБ

В этой теме нет новых непрочитанных сообщений. Вторжение на Землю (1-8 серии из 8 ) / Invasion Earth [документальный, 2014] IPTVRip, AVO

salma3

8 | 3

4.28 ГБ

В этой теме нет новых непрочитанных сообщений. Вторжение гигантских пауков / The Giant Spider Invasion [ужасы, фантастика, 1975] DVDRip, Avo

salma3

1 | 3

1.46 ГБ

В этой теме нет новых непрочитанных сообщений. Вторжение / Проникновение / Breaking In [Боевик, триллер, драма, 2018] BDRip, Dub [iTunes] [Театральная версия]

salma3

473 | 192

1.42 ГБ

В этой теме нет новых непрочитанных сообщений. Вторжение / Breaking In [Боевик, триллер, драма, 2018] BDRip 1080p, Dub [iTunes] [Театральная версия]

salma3

130 | 86

7.74 ГБ

В этой теме нет новых непрочитанных сообщений. Вторжение / Проникновение / Breaking In [Боевик, триллер, драма, 2018] BDRip-AVC, Dub [iTunes] [Театральная версия]

salma3

0 | 0

1.51 ГБ


Начать новую тему Ответить на тему  [ 1 сообщение ] 




Для Мосгорсуда, Роскомнадзора и рекламодателей:: mosgorsud-torrent[собачка]yandex.ru
cron