Торрент файл
скачать торрент магнет ссылка Добавлен: 23 янв 2018, 12:25
Размер: 13.92 ГБ
Сидеров: 0
Личеров: 0
Статус: (salma3)
Автор

СообщениеДобавлено: 23 янв 2018, 12:25 

Не в сети
Супермодератор
Аватара пользователя
Дата регистрации:
15 фев 2012, 16:44
Возраст: 29
Спасибо: 7328 / 2147
Сообщения: 73609
Год выхода: 2003
Жанр: фэнтези, драма, комедия
Режиссер: Том Шэдьяк

В ролях: Джим Керри, Морган Фриман, Дженнифер Энистон, Филип Бейкер Холл, Кэтрин Белл, Лиза Энн Уолтер, Стив Карелл, Нора Данн, Эдди Джемисон, Пол Сэттерфилд

О фильме:
Брюс Нолан — популярный ведущий теленовостей в Буффало. Он — пессимист, и его ничего не интересует в этой жизни, даже девушка Грейс, которая любит его, несмотря на всю его вредность. Его репортажи интересуют всех, кроме его самого. Мечта Брюса — быть ведущим, тем более местечко вот-вот должно освободиться. Но однажды Брюса настигает неудача, и его увольняют с работы. В конец разочарованный Брюс гневается на Бога, а тот… отвечает ему! Всемогущий предлагает Брюсу сменить его на неделю и посмотреть, сможет ли он сделать мир хоть чуточку лучше…




Страна: США
Продолжительность: 01:41:02
Перевод: Дубляж, Профессиональный многоголосый (СТС), Профессиональный двухголосый, авторский (Гаврилов, Рудой)

Файл
Кодек: h.264
Качество: BDRip 1080p
Видео: 1920x1080, 15900 kbps, 23.976 fps, 0.319 bit/pixel [me=umh / crf=18 / me_range=32]
Звук:
1 - Русский [AC-3, 640 Кбит/сек, 6 каналов, 48 КГц, 16 бит, 1536 SPF] - AVO (Андрей Гаврилов)
2 - Русский [DTS, 755 Кбит/сек, 6 каналов, 48 КГц, 24 бит, 512 SPF] - DUB
3 - Русский [AC-3, 192 Кбит/сек, 2 каналов, 48 КГц, 16 бит, 1536 SPF] - MVO (телеканал СТС)
4 - Русский [AC-3, 384 Кбит/сек, 6 каналов, 48 КГц, 16 бит, 1536 SPF] - DVO
5 - Русский [AC-3, 384 Кбит/сек, 6 каналов, 48 КГц, 16 бит, 1536 SPF] - AVO (Евгений Рудой)
6 - Английский [DTS, 1509 Кбит/сек, 6 каналов, 48 КГц, 16 бит, 512 SPF] - ORIGINAL
Субтитры:
1 - Русские [SRT, UTF-8, 106 бит/сек]
2 - Английские [SRT, UTF-8, 54 бит/сек]

СЭМПЛ

Общее
Уникальный идентификатор : 155353707818118019914610042790060796855 (0x74E0092942EEF2BE729C9F58E644ABB7)
Полное имя : Брюс-Всемогущий-2003-1080p-Gross.1978.mkv
Формат : Matroska
Версия формата : Version 4 / Version 2
Размер файла : 13,9 Гбайт
Продолжительность : 1 ч. 41 м.
Общий поток : 19,7 Мбит/сек
Название фильма : Gross.1978
Дата кодирования : UTC 2018-01-23 03:29:15
Программа кодирования : mkvmerge v19.0.0 ('Brave Captain') 64-bit
Библиотека кодирования : libebml v1.3.5 + libmatroska v1.4.8

Видео
Идентификатор : 1
Формат : AVC
Формат/Информация : Advanced Video Codec
Профиль формата : High@L4.1
Настройки формата : CABAC / 4 Ref Frames
Параметр CABAC формата : Да
Параметр RefFrames формата : 4 кадра
Идентификатор кодека : V_MPEG4/ISO/AVC
Продолжительность : 1 ч. 41 м.
Битрейт : 15,9 Мбит/сек
Ширина : 1920 пикселей
Высота : 1080 пикселей
Соотношение сторон : 16:9
Режим частоты кадров : Постоянный
Частота кадров : 23,976 (24000/1001) кадра/сек
Цветовое пространство : YUV
Субдискретизация насыщенности : 4:2:0
Битовая глубина : 8 бит
Тип развёртки : Прогрессивная
Бит/(Пиксели*Кадры) : 0.319
Размер потока : 11,2 Гбайт (80%)
Заголовок : 66% of the original
Библиотека кодирования : x264 core 129 r2230+696+36 4446aa2 tMod+MixAQ [8-bit@all X86_64]
Настройки программы : cabac=1 / ref=4 / deblock=1:-3:-3 / analyse=0x3:0x133 / me=umh / subme=11 / psy=1 / fade_compensate=0.00 / psy_rd=1.30:0.20 / mixed_ref=1 / me_range=32 / chroma_me=1 / trellis=2 / 8x8dct=1 / cqm=0 / deadzone=21,11 / fast_pskip=0 / chroma_qp_offset=-3 / threads=12 / lookahead_threads=2 / sliced_threads=0 / nr=0 / decimate=1 / interlaced=0 / bluray_compat=0 / constrained_intra=0 / fgo=0 / bframes=10 / b_pyramid=2 / b_adapt=2 / b_bias=0 / direct=3 / weightb=1 / open_gop=0 / weightp=2 / keyint=240 / keyint_min=23 / scenecut=40 / intra_refresh=0 / rc=crf / mbtree=0 / crf=18.0000 / qcomp=0.60 / qpmin=0 / qpmax=69 / qpstep=4 / ip_ratio=1.20 / pb_ratio=1.15 / aq=3 / aq-strength=0.80 / aq-sensitivity=10.00 / aq-ifactor=1.00 / aq-pfactor=1.00 / aq-bfactor=1.00 / aq2=0
Язык : English
Default : Да
Forced : Нет
Цветовой диапазон : Limited
Основные цвета : BT.709
Характеристики трансфера : BT.709
Коэффициенты матрицы : BT.709

Аудио #1
Идентификатор : 2
Формат : AC-3
Формат/Информация : Audio Coding 3
Идентификатор кодека : A_AC3
Продолжительность : 1 ч. 41 м.
Вид битрейта : Постоянный
Битрейт : 640 Кбит/сек
Каналы : 6 каналов
Расположение каналов : Front: L C R, Side: L R, LFE
Частота : 48,0 КГц
Частота кадров : 31,250 кадров/сек (1536 SPF)
Битовая глубина : 16 бит
Метод сжатия : С потерями
Размер потока : 463 Мбайт (3%)
Заголовок : Андрей Гаврилов
Язык : Russian
ServiceKind/String : Complete Main
Default : Да
Forced : Да

Аудио #2
Идентификатор : 3
Формат : DTS
Формат/Информация : Digital Theater Systems
Идентификатор кодека : A_DTS
Продолжительность : 1 ч. 41 м.
Вид битрейта : Постоянный
Битрейт : 755 Кбит/сек
Каналы : 6 каналов
Расположение каналов : Front: L C R, Side: L R, LFE
Частота : 48,0 КГц
Частота кадров : 93,750 кадра/сек (512 SPF)
Битовая глубина : 24 бит
Метод сжатия : С потерями
Размер потока : 545 Мбайт (4%)
Заголовок : Dub DTS 6ch 755kbps
Язык : Russian
Default : Нет
Forced : Нет

Аудио #3
Идентификатор : 4
Формат : AC-3
Формат/Информация : Audio Coding 3
Идентификатор кодека : A_AC3
Продолжительность : 1 ч. 40 м.
Вид битрейта : Постоянный
Битрейт : 192 Кбит/сек
Каналы : 2 канала
Расположение каналов : Front: L R
Частота : 48,0 КГц
Частота кадров : 31,250 кадров/сек (1536 SPF)
Битовая глубина : 16 бит
Метод сжатия : С потерями
Размер потока : 139 Мбайт (1%)
Заголовок : MVO AC3 2ch 192kbps (СТС)
Язык : Russian
ServiceKind/String : Complete Main
Default : Нет
Forced : Нет

Аудио #4
Идентификатор : 5
Формат : AC-3
Формат/Информация : Audio Coding 3
Идентификатор кодека : A_AC3
Продолжительность : 1 ч. 41 м.
Вид битрейта : Постоянный
Битрейт : 384 Кбит/сек
Каналы : 6 каналов
Расположение каналов : Front: L C R, Side: L R, LFE
Частота : 48,0 КГц
Частота кадров : 31,250 кадров/сек (1536 SPF)
Битовая глубина : 16 бит
Метод сжатия : С потерями
Размер потока : 278 Мбайт (2%)
Заголовок : DVO AC3 6ch 384kbps
Язык : Russian
ServiceKind/String : Complete Main
Default : Нет
Forced : Нет

Аудио #5
Идентификатор : 6
Формат : AC-3
Формат/Информация : Audio Coding 3
Идентификатор кодека : A_AC3
Продолжительность : 1 ч. 41 м.
Вид битрейта : Постоянный
Битрейт : 384 Кбит/сек
Каналы : 6 каналов
Расположение каналов : Front: L C R, Side: L R, LFE
Частота : 48,0 КГц
Частота кадров : 31,250 кадров/сек (1536 SPF)
Битовая глубина : 16 бит
Метод сжатия : С потерями
Размер потока : 278 Мбайт (2%)
Заголовок : AVO AC3 6ch 384kbps (Е.Рудой)
Язык : Russian
ServiceKind/String : Complete Main
Default : Нет
Forced : Нет

Аудио #6
Идентификатор : 7
Формат : DTS
Формат/Информация : Digital Theater Systems
Идентификатор кодека : A_DTS
Продолжительность : 1 ч. 41 м.
Вид битрейта : Постоянный
Битрейт : 1509 Кбит/сек
Каналы : 6 каналов
Расположение каналов : Front: L C R, Side: L R, LFE
Частота : 48,0 КГц
Частота кадров : 93,750 кадра/сек (512 SPF)
Битовая глубина : 16 бит
Метод сжатия : С потерями
Размер потока : 1,06 Гбайт (8%)
Заголовок : Original DTS 6ch 1510kbps
Язык : English
Default : Нет
Forced : Нет

Текст #1
Идентификатор : 8
Формат : UTF-8
Идентификатор кодека : S_TEXT/UTF8
Идентификатор кодека/Информация : UTF-8 Plain Text
Продолжительность : 1 ч. 34 м.
Битрейт : 106 бит/сек
ElementCount : 887
Размер потока : 73,6 Кбайт (0%)
Язык : Russian
Default : Нет
Forced : Нет

Текст #2
Идентификатор : 9
Формат : UTF-8
Идентификатор кодека : S_TEXT/UTF8
Идентификатор кодека/Информация : UTF-8 Plain Text
Продолжительность : 1 ч. 34 м.
Битрейт : 54 бит/сек
ElementCount : 1082
Размер потока : 37,6 Кбайт (0%)
Язык : English
Default : Нет
Forced : Нет

Меню
00:00:00.000 : en:1
00:10:00.000 : en:2
00:20:00.000 : en:3
00:30:00.000 : en:4
00:40:00.000 : en:5
00:50:00.000 : en:6
01:00:00.000 : en:7
01:10:00.000 : en:8
01:20:00.000 : en:9
01:30:00.000 : en:10


Релиз от: Gross.1978


_________________
Проголосуй за трекер Открытый торрент трекер - RUS-MEDIA.ORG

Проголосуй Открытый торрент трекер - RUS-MEDIA.ORG


Вернуться к началу
 Профиль Отправить личное сообщение  
 
   Похожие торренты   Автор   Торрент   Размер 
В этой теме нет новых непрочитанных сообщений. Эван Всемогущий / Evan Almighty [Фэнтези, комедия, семейный, 2007] BDRip 1080p, Dub [Лицензия]

salma3

48 | 25

7.33 ГБ

В этой теме нет новых непрочитанных сообщений. Эван Всемогущий / Evan Almighty [фэнтези, комедия, семейный, 2007] BDRip-AVC, Dub

salma3

19 | 5

1.55 ГБ

В этой теме нет новых непрочитанных сообщений. Эван Всемогущий / Evan Almighty [фэнтези, комедия, семейный, 2007] BDRip 720p, Dub

salma3

100 | 37

5.75 ГБ

В этой теме нет новых непрочитанных сообщений. Эван Всемогущий / Evan Almighty [фэнтези, комедия, семейный, 2007] HDRip, Dub

salma3

47 | 15

745.16 МБ

В этой теме нет новых непрочитанных сообщений. Брюс Ли - Боец / Bruce Lee - The Fighter [Комедия, боевик, 2015] WEB-DLRip 1080p, Mvo

salma3

116 | 14

2.85 ГБ

В этой теме нет новых непрочитанных сообщений. Брюс Ли – боец / Bruce Lee-The Fighter [боевик, комедия, семейный, 2015] DVDRip, Mvo

salma3

56 | 6

1.79 ГБ

В этой теме нет новых непрочитанных сообщений. Брюс Ли - Боец / Bruce Lee - The Fighter [боевик, комедия, семейный, 2015] WEB-DLRip, Mvo

salma3

168 | 101

2.17 ГБ


Начать новую тему Ответить на тему  [ 1 сообщение ] 




Для Мосгорсуда, Роскомнадзора и рекламодателей:: mosgorsud-torrent[собачка]yandex.ru
cron