Торрент файл
скачать торрент магнет ссылка Добавлен: 22 янв 2018, 23:45
Размер: 8.91 ГБ
Сидеров: 16
Личеров: 2
Статус: (salma3)
Автор

СообщениеДобавлено: 22 янв 2018, 23:45 

Не в сети
Супермодератор
Аватара пользователя
Дата регистрации:
15 фев 2012, 16:44
Возраст: 29
Спасибо: 7320 / 2147
Сообщения: 73192
Год выхода: 2017
Жанр: боевик, приключения, семейный
Режиссер: Мэтт Драммонд

В ролях: Джордан Дюльо, Аннабель Вольф, Скотт Ирвин, Бет Чемпион, Роулэнд Холмс, Кристофер Габарди, Харрисон Саундерс, Том Руни

О фильме: В результате неудачного военного биологического эксперимента рождается удивительное создание. Это существо находит подросток и прячет у себя дома. Новый друг начинает стремительно расти и распространять хаос по всему городу. Это, конечно, сразу же вызывает недовольство людей в форме. Но они еще не знают, что на защиту животного выйдет команда местных подростков.



Страна: Австралия
Продолжительность: 01:33:51
Перевод: Профессиональный (полное дублирование)[iTunes]

Файл
Кодек: x.264
Качество: BDRip 1080p
Видео: AVC, 1920x800 (2.40:1), 23.976 fps, 12.6 Mbps
Звук 1: AC-3, 48.0 KHz, 6 ch, 384 Kbps, CBR (Russian)
Звук 2: AC-3, 48.0 KHz, 6 ch, 640 Kbps, CBR (English)

Общее
Уникальный идентификатор : 255052021610328152246467204931418074437 (0xBFE13B8A55E74B00A3242B4E47942D45)
Полное имя : My.Pet.Dinosaur.2O17.D.BDRip.1080p.mkv
Формат : Matroska
Версия формата : Version 4 / Version 2
Размер файла : 8,91 Гбайт
Продолжительность : 1 ч. 33 м.
Общий поток : 13,6 Мбит/сек
Дата кодирования : UTC 2018-01-22 18:21:57
Программа кодирования : mkvmerge v8.3.0 ('Over the Horizon') 64bit
Библиотека кодирования : libebml v1.3.1 + libmatroska v1.4.2

Видео
Идентификатор : 1
Формат : AVC
Формат/Информация : Advanced Video Codec
Профиль формата : High@L4.1
Параметр CABAC формата : Да
Параметр ReFrames формата : 5 кадров
Идентификатор кодека : V_MPEG4/ISO/AVC
Продолжительность : 1 ч. 33 м.
Битрейт : 12,6 Мбит/сек
Ширина : 1920 пикселей
Высота : 800 пикселей
Соотношение сторон : 2,40:1
Режим частоты кадров : Постоянный
Частота кадров : 23,976 (24000/1001) кадра/сек
Цветовое пространство : YUV
Субдискретизация насыщенности : 4:2:0
Битовая глубина : 8 бит
Тип развёртки : Прогрессивная
Бит/(Пиксели*Кадры) : 0.341
Размер потока : 8,24 Гбайт (92%)
Библиотека кодирования : x264 core 152 r2851+58 429492e t_mod_Custom [8-bit@all X86_64]
Настройки программы : cabac=1 / ref=5 / deblock=1:-3:-3 / analyse=0x3:0x133 / me=umh / subme=11 / psy=1 / fade_compensate=0.00 / psy_rd=1.00:0.00 / mixed_ref=1 / me_range=32 / chroma_me=1 / trellis=2 / 8x8dct=1 / cqm=0 / deadzone=21,11 / fast_pskip=0 / chroma_qp_offset=-2 / threads=6 / lookahead_threads=1 / sliced_threads=0 / nr=0 / decimate=0 / interlaced=0 / bluray_compat=0 / constrained_intra=0 / fgo=0 / bframes=8 / b_pyramid=2 / b_adapt=2 / b_bias=0 / direct=3 / weightb=1 / open_gop=0 / weightp=2 / keyint=250 / keyint_min=23 / scenecut=40 / intra_refresh=0 / rc_lookahead=60 / rc=crf / mbtree=0 / crf=14.5000 / qcomp=0.60 / qpmin=0:0:0 / qpmax=69:69:69 / qpstep=4 / vbv_maxrate=62500 / vbv_bufsize=78125 / crf_max=0.0 / nal_hrd=none / filler=0 / ip_ratio=1.30 / pb_ratio=1.20 / aq=3:0.70 / aq-sensitivity=10.00 / aq-factor=1.00:1.00:1.00 / aq2=0 / aq3=0 / zones=0,840,b=2
Язык : English
Default : Да
Forced : Нет
Цветовой диапазон : Limited
Коэффициенты матрицы : BT.709

Аудио #1
Идентификатор : 2
Формат : AC-3
Формат/Информация : Audio Coding 3
Параметр Endianness формата : Big
Идентификатор кодека : A_AC3
Продолжительность : 1 ч. 33 м.
Вид битрейта : Постоянный
Битрейт : 384 Кбит/сек
Каналы : 6 каналов
Расположение каналов : Front: L C R, Side: L R, LFE
Частота : 48,0 КГц
Частота кадров : 31,250 кадров/сек (1536 spf)
Битовая глубина : 16 бит
Метод сжатия : С потерями
Размер потока : 258 Мбайт (3%)
Заголовок : iTunes
Язык : Russian
Default : Да
Forced : Нет

Аудио #2
Идентификатор : 3
Формат : AC-3
Формат/Информация : Audio Coding 3
Параметр Endianness формата : Big
Идентификатор кодека : A_AC3
Продолжительность : 1 ч. 33 м.
Вид битрейта : Постоянный
Битрейт : 640 Кбит/сек
Каналы : 6 каналов
Расположение каналов : Front: L C R, Side: L R, LFE
Частота : 48,0 КГц
Частота кадров : 31,250 кадров/сек (1536 spf)
Битовая глубина : 16 бит
Метод сжатия : С потерями
Размер потока : 429 Мбайт (5%)
Заголовок : Original
Язык : English
Default : Нет
Forced : Нет

Меню
00:00:00.000 : en:Chapter 01
00:09:20.935 : en:Chapter 02
00:17:58.828 : en:Chapter 03
00:25:10.426 : en:Chapter 04
00:32:31.992 : en:Chapter 05
00:40:29.177 : en:Chapter 06
00:47:27.386 : en:Chapter 07
00:54:54.082 : en:Chapter 08
01:02:29.412 : en:Chapter 09
01:11:36.375 : en:Chapter 10
01:19:15.626 : en:Chapter 11
01:26:00.322 : en:Chapter 12



_________________
Проголосуй за трекер Открытый торрент трекер - RUS-MEDIA.ORG

Проголосуй Открытый торрент трекер - RUS-MEDIA.ORG


Вернуться к началу
 Профиль Отправить личное сообщение  
 
   Похожие торренты   Автор   Торрент   Размер 
В этой теме нет новых непрочитанных сообщений. Мой любимый динозавр / My Pet Dinosaur [Боевик, приключения, семейный, 2017] HDRip, Dub [iTunes]

salma3

2126 | 80

1.46 ГБ

В этой теме нет новых непрочитанных сообщений. Мой любимый динозавр / My Pet Dinosaur [Боевик, приключения, семейный, 2017] HDRip, Dub [iTunes]

salma3

0 | 0

746.21 МБ

В этой теме нет новых непрочитанных сообщений. Мой любимый динозавр / My Pet Dinosaur [боевик, приключения, семейный, 2017] HDRip, Dub [iTunes]

salma3

0 | 0

1.37 ГБ

В этой теме нет новых непрочитанных сообщений. Мой любимый динозавр / My Pet Dinosaur [боевик, приключения, семейный, 2017] BDRip, Dub [Лицензия]

salma3

0 | 0

1.45 ГБ

В этой теме нет новых непрочитанных сообщений. Мой любимый динозавр / My Pet Dinosaur [боевик, приключения, семейный, 2017] BDRip, Dub [Лицензия]

salma3

0 | 1

1.46 ГБ

В этой теме нет новых непрочитанных сообщений. Хороший динозавр / The Good Dinosaur [Мультфильм, фэнтези, комедия, приключения, семейный, 2015] BDRip 1080p, dub [чистый звук]

Dracon

321 | 12

4.5 ГБ

В этой теме нет новых непрочитанных сообщений. Хороший динозавр / The Good Dinosaur [Мультфильм, фэнтези, комедия, приключения, семейный, 2015] BDRip 1080p, dub [3D-Video | чистый звук]

Dracon

39 | 9

14.07 ГБ


Начать новую тему Ответить на тему  [ 1 сообщение ] 




Для Мосгорсуда, Роскомнадзора и рекламодателей:: mosgorsud-torrent[собачка]yandex.ru
cron