Торрент файл
скачать торрент магнет ссылка Добавлен: 17 янв 2018, 13:12
Размер: 54.09 ГБ
Сидеров: 0
Личеров: 0
Статус: (salma3)
Автор

СообщениеДобавлено: 17 янв 2018, 13:12 

Не в сети
Супермодератор
Аватара пользователя
Дата регистрации:
15 фев 2012, 16:44
Возраст: 28
Спасибо: 7205 / 2147
Сообщения: 65324
Год выхода: 2005
Жанр: Фантастика, боевик, триллер
Режиссер: Джосс Уидон

В ролях: Натан Филлион, Джина Торрес, Алан Тьюдик, Морена Баккарин, Адам Болдуин, Джуэл Стэйт, Шон Маэр, Саммер Глау, Рон Гласс, Чиветел Эджиофор, Эрик Уэйнер, Дэвид Крамхолц, Майкл Хичкок, Сара Полсон, Ян Фельдман, Рафаэль Фельдман, Тамара Тейлор

О фильме:
В далеком будущем команда корабля «Серенити», состоящая из ветеранов галактической войны, бороздит просторы космоса, зарабатывая на жизнь контрабандой. Но однажды на корабль попадает юная, обладающая даром телепатии, девушка. В глубинах своей памяти она хранит страшный секрет – и потому в погоню за «Серенити» устремляются силы зловещего Альянса.



Страна: США
Продолжительность: 01:58:55
Перевод(ы): Дублированный | Лицензия R5
#2: Профессиональный двухголосый | Tycoon
#3: Авторский | Горчаков
#4: Авторский | Королёв
#5: Авторский | Сербин

Файл
Качество: BDRemux 2160p
Видео: MPEG-H HEVC HDR Video, 3840x2160, 54.0 Mbit/s, 23.976 fps
Звук:
Аудио #01: 48 kHz, AC3, 5.1, 384 Kbps | Дублированный | RUS |
Аудио #02: 48 kHz, DTS, 5.1, 1510 Kbps | Профессиональный двухголосый | RUS |
Аудио #03: 48 kHz, DTS, 5.1, 1510 Kbps | Авторский | RUS |
Аудио #04: 48 kHz, DTS, 5.1, 755 Kbps | Авторский | RUS |
Аудио #05: 48 kHz, DTS, 5.1, 1510 Kbps | Авторский | RUS |
Аудио #06: 48 kHz, DTS-HD MA, 7.1, 5476 Kbps | Оригинал | ENG |
Субтитры: Русские (forced, full), английские

General
Unique ID : 144877172718061545519485260263458663732 (0x6CFE5419DC14F04B26360931D66CED34)
Complete name : G:VideoSSDSerenity.2005.BDREMUX.2160p.4K.UltraHD.HEVC.HDR.ExKinoRay.mkv
Format : Matroska
Format version : Version 4 / Version 2
File size : 54.1 GiB
Duration : 1 h 59 min
Overall bit rate : 65.1 Mb/s
Movie name : Serenity 2005 from ExKinoRay
Encoded date : UTC 2018-01-17 08:39:40
Writing application : mkvmerge v20.0.0 ('I Am The Sun') 64-bit
Writing library : libebml v1.3.5 + libmatroska v1.4.8

Video
ID : 1
Format : HEVC
Format/Info : High Efficiency Video Coding
Format profile : Main 10@L5.1@High
Codec ID : V_MPEGH/ISO/HEVC
Duration : 1 h 58 min
Bit rate : 54.0 Mb/s
Width : 3 840 pixels
Height : 2 160 pixels
Display aspect ratio : 16:9
Frame rate mode : Constant
Frame rate : 23.976 (24000/1001) FPS
Color space : YUV
Chroma subsampling : 4:2:0 (Type 2)
Bit depth : 10 bits
Bits/(Pixel*Frame) : 0.271
Stream size : 44.8 GiB (83%)
Writing library : ATEME Titan File 3.7.9 (4.7.9.0)
Language : English
Default : Yes
Forced : No
Color range : Limited
Color primaries : BT.2020
Transfer characteristics : PQ
Matrix coefficients : BT.2020 non-constant
Mastering display color pri : R: x=0.680000 y=0.320000, G: x=0.265000 y=0.690000, B: x=0.150000 y=0.060000, White point: x=0.312700 y=0.329000
Mastering display luminance : min: 0.0050 cd/m2, max: 1000.0000 cd/m2
Maximum Content Light Level : 996 cd/m2
Maximum Frame-Average Light : 263 cd/m2

Audio #1
ID : 2
Format : AC-3
Format/Info : Audio Coding 3
Codec ID : A_AC3
Duration : 1 h 58 min
Bit rate mode : Constant
Bit rate : 384 kb/s
Channel(s) : 6 channels
Channel positions : Front: L C R, Side: L R, LFE
Sampling rate : 48.0 kHz
Frame rate : 31.250 FPS (1536 SPF)
Bit depth : 16 bits
Compression mode : Lossy
Stream size : 327 MiB (1%)
Title : Dub R5
Language : Russian
Service kind : Complete Main
Default : Yes
Forced : No

Audio #2
ID : 3
Format : DTS
Format/Info : Digital Theater Systems
Codec ID : A_DTS
Duration : 1 h 59 min
Bit rate mode : Constant
Bit rate : 1 509 kb/s
Channel(s) : 6 channels
Channel positions : Front: L C R, Side: L R, LFE
Sampling rate : 48.0 kHz
Frame rate : 93.750 FPS (512 SPF)
Bit depth : 24 bits
Compression mode : Lossy
Stream size : 1.25 GiB (2%)
Title : DVO Tycoon
Language : Russian
Default : No
Forced : No

Audio #3
ID : 4
Format : DTS
Format/Info : Digital Theater Systems
Codec ID : A_DTS
Duration : 1 h 59 min
Bit rate mode : Constant
Bit rate : 1 510 kb/s
Channel(s) : 6 channels
Channel positions : Front: L C R, Side: L R, LFE
Sampling rate : 48.0 kHz
Frame rate : 93.750 FPS (512 SPF)
Bit depth : 24 bits
Compression mode : Lossy
Stream size : 1.26 GiB (2%)
Title : AVO [Gorchakov]
Language : Russian
Default : No
Forced : No

Audio #4
ID : 5
Format : DTS
Format/Info : Digital Theater Systems
Codec ID : A_DTS
Duration : 1 h 59 min
Bit rate mode : Constant
Bit rate : 755 kb/s
Channel(s) : 6 channels
Channel positions : Front: L C R, Side: L R, LFE
Sampling rate : 48.0 kHz
Frame rate : 93.750 FPS (512 SPF)
Bit depth : 24 bits
Compression mode : Lossy
Stream size : 642 MiB (1%)
Title : AVO [Koroljov]
Language : Russian
Default : No
Forced : No

Audio #5
ID : 6
Format : DTS
Format/Info : Digital Theater Systems
Codec ID : A_DTS
Duration : 1 h 59 min
Bit rate mode : Constant
Bit rate : 1 509 kb/s
Channel(s) : 6 channels
Channel positions : Front: L C R, Side: L R, LFE
Sampling rate : 48.0 kHz
Frame rate : 93.750 FPS (512 SPF)
Bit depth : 24 bits
Compression mode : Lossy
Stream size : 1.25 GiB (2%)
Title : AVO [Serbin]
Language : Russian
Default : No
Forced : No

Audio #6
ID : 7
Format : DTS
Format/Info : Digital Theater Systems
Format profile : X / MA / Core
Codec ID : A_DTS
Duration : 1 h 58 min
Bit rate mode : Variable / Variable / Constant
Bit rate : 5 476 kb/s / 5 476 kb/s / 1 509 kb/s
Channel(s) : Object Based / 8 channels / 6 channels
Channel positions : Object Based / Front: L C R, Side: L R, Back: L R, LFE / Front: L C R, Side: L R, LFE
Sampling rate : / 48.0 kHz / 48.0 kHz
Frame rate : 93.750 FPS (512 SPF)
Bit depth : / 24 bits / 24 bits
Compression mode : / Lossless / Lossy
Stream size : 4.55 GiB (8%)
Title : Original
Language : English
Default : No
Forced : No

Text #1
ID : 8
Format : UTF-8
Codec ID : S_TEXT/UTF8
Codec ID/Info : UTF-8 Plain Text
Duration : 1 h 17 min
Bit rate : 1 b/s
Count of elements : 14
Stream size : 835 Bytes (0%)
Title : Forced
Language : Russian
Default : Yes
Forced : No

Text #2
ID : 9
Format : UTF-8
Codec ID : S_TEXT/UTF8
Codec ID/Info : UTF-8 Plain Text
Duration : 1 h 52 min
Bit rate : 98 b/s
Count of elements : 1335
Stream size : 81.2 KiB (0%)
Title : Full [Tycoon]
Language : Russian
Default : No
Forced : No

Text #3
ID : 10
Format : UTF-8
Codec ID : S_TEXT/UTF8
Codec ID/Info : UTF-8 Plain Text
Duration : 1 h 52 min
Bit rate : 55 b/s
Count of elements : 1428
Stream size : 45.7 KiB (0%)
Title : Full
Language : English
Default : No
Forced : No

Text #4
ID : 11
Format : UTF-8
Codec ID : S_TEXT/UTF8
Codec ID/Info : UTF-8 Plain Text
Duration : 1 h 52 min
Bit rate : 59 b/s
Count of elements : 1635
Stream size : 49.6 KiB (0%)
Title : SDH
Language : English
Default : No
Forced : No

Menu
00:00:00.000 : en:Living Weapon
00:05:01.759 : en:A Better World
00:09:32.446 : en:Aboard Serenity
00:14:50.097 : en:Going For a Ride
00:19:50.856 : en:Reavers
00:29:14.002 : en:Triggered
00:36:19.260 : en:Mr. Universe
00:44:10.272 : en:Safe Haven
00:49:55.701 : en:Civilized Resolution
00:55:45.050 : en:Posing a Threat
00:59:29.315 : en:Miranda
01:04:46.257 : en:"Just Believe"
01:09:14.733 : en:Suicide Mission
01:13:34.785 : en:Learning the Secret
01:22:39.579 : en:Caught in the Middle
01:30:19.580 : en:Can't Stop the Signal
01:36:58.479 : en:Fighting For a Belief
01:45:57.726 : en:Do We Have an Order?
01:47:38.118 : en:It's Not Over
01:53:22.670 : en:End Titles
01:58:55.962 : en:Chapter 21


Релиз от: Автор релиза:


_________________
Проголосуй за трекер Открытый торрент трекер - RUS-MEDIA.ORG

Проголосуй Открытый торрент трекер - RUS-MEDIA.ORG


Вернуться к началу
 Профиль Отправить личное сообщение  
 
   Похожие торренты   Автор   Торрент   Размер 
В этой теме нет новых непрочитанных сообщений. Миссия «Серенити» / Serenity [фантастика, боевик, триллер, 2005] HDRip-AVC, Dvo

salma3

12 | 4

744.38 МБ

В этой теме нет новых непрочитанных сообщений. Миссия «Серенити» / Serenity [фантастика, боевик, драма, 2005] BDRip-HEVC 1080p, Dub

salma3

22 | 11

7.25 ГБ

В этой теме нет новых непрочитанных сообщений. Морской бой / Battleship [Фантастика, боевик, триллер, 2012] BDRemux 2160p, Dub [4K]

salma3

0 | 0

66.19 ГБ

В этой теме нет новых непрочитанных сообщений. 5-я волна / The 5th Wave [Фантастика, боевик, триллер, 2016] UHD BDRemux 2160p, Dub [4K] [Лицензия]

salma3

30 | 10

49.67 ГБ

В этой теме нет новых непрочитанных сообщений. Исходный код / Source Code [фантастика, боевик, триллер, 2011] UHD BDRemux 2160p, Dub

salma3

1 | 22

50.86 ГБ

В этой теме нет новых непрочитанных сообщений. Судья Дредд / Dredd [Фантастика, боевик, триллер, 2012] BDRemux 2160p, Dub [4K] [Лицензия]

salma3

3 | 40

63.21 ГБ

В этой теме нет новых непрочитанных сообщений. Логан / Logan [Фантастика, боевик, триллер, драма, 2017] UHD BDRemux 2160p, Dub [4K] [Лицензия]

salma3

38 | 15

49.21 ГБ


Начать новую тему Ответить на тему  [ 1 сообщение ] 




Для Мосгорсуда, Роскомнадзора и рекламодателей:: mosgorsud-torrent[собачка]yandex.ru
cron