Торрент файл
скачать торрент магнет ссылка Добавлен: 13 янв 2018, 13:31
Размер: 4.71 ГБ
Сидеров: 14
Личеров: 6
Статус: (salma3)
Автор

СообщениеДобавлено: 13 янв 2018, 13:31 

Не в сети
Супермодератор
Аватара пользователя
Дата регистрации:
15 фев 2012, 16:44
Возраст: 28
Спасибо: 7203 / 2147
Сообщения: 65070
Год выпуска: 1993
Страна: США
Жанр: драма, мелодрама, комедия
Продолжительность:
Перевод: дублированный, профессиональный многоголосый, авторский

Режиссёр: Бэрри Зонненфельд

В ролях: Майкл Дж. Фокс, Габриэлль Анвар, Файвуш Финкель, Майк Мойер, Саверио Гуэрра, Дэниэл Хэйгэн, Ла Чэнз, Паула Лоуренс, Донна Митчелл, Дебра Монк, Сандра Ривз-Филлипс

Описание: У Дугласа, консьержа роскошной гостиницы, две мечты — заработать на собственный отель и жениться на красотке Энди. Щедрые чаевые от богатых клиентов помогут осуществить первую мечту, а со второй - проблема. Как жениться на девушке, у которой уже есть жених, к тому же красивый и богатый?...



Качество: BDRip 720p
Формат: MKV
Видео: MPEG-4 AVC, 5181 Кбит/с, 1280x694, 23,976 кадра/с
Аудио 1: русский, AC3, 192 kbps, 2 ch, 48 kHz [дублированный]
Аудио 2: русский, AC3, 192 kbps, 2 ch, 48 kHz [профессиональный многоголосый, ОРТ]
Аудио 3: русский, AC3, 192 kbps, 2 ch, 48 kHz [авторский, Василий Горчаков]

Внешние файлы
Аудио: русский, AC3, 192 kbps, 2 ch, 48 kHz [профессиональный многоголосый, СТС]
Аудио: русский, AC3, 192 kbps, 2 ch, 48 kHz [авторский, Вартан Дохалов]
Аудио: русский, AC3, 384 kbps, 6 ch, 48 kHz [авторский, Владимир Королёв]
Аудио: английский, AC3, 448 kbps, 6 ch, 48 kHz [оригинал]
Субтитры: русские
Субтитры: английские (для слабослышащих)

Общее
Полное имя : D:VideoКонсьерж.1993.BDRip.720pКонсьерж.1993.AVO.rus.В.Дохалов.ac3
Формат : AC-3
Формат/Информация : Audio Coding 3
Размер файла : 131 Мбайт
Продолжительность : 1 ч. 35 м.
Режим общего битрейта : Постоянный
Общий поток : 192 Кбит/сек

Аудио
Формат : AC-3
Формат/Информация : Audio Coding 3
Расширение режима : CM (complete main)
Параметр Endianness формата : Big
Продолжительность : 1 ч. 35 м.
Вид битрейта : Постоянный
Битрейт : 192 Кбит/сек
Каналы : 2 канала
Расположение каналов : Front: L R
Частота : 48,0 КГц
Метод сжатия : С потерями
Размер потока : 131 Мбайт (100%)

Общее
Полное имя : D:VideoКонсьерж.1993.BDRip.720pКонсьерж.1993.AVO.rus.В.Королёв.ac3
Формат : AC-3
Формат/Информация : Audio Coding 3
Размер файла : 261 Мбайт
Продолжительность : 1 ч. 35 м.
Режим общего битрейта : Постоянный
Общий поток : 384 Кбит/сек

Аудио
Формат : AC-3
Формат/Информация : Audio Coding 3
Расширение режима : CM (complete main)
Параметр Endianness формата : Big
Продолжительность : 1 ч. 35 м.
Вид битрейта : Постоянный
Битрейт : 384 Кбит/сек
Каналы : 6 каналов
Расположение каналов : Front: L C R, Side: L R, LFE
Частота : 48,0 КГц
Метод сжатия : С потерями
Размер потока : 261 Мбайт (100%)

Общее
Уникальный идентификатор : 208006305680363441923952738949246290681 (0x9C7C8EA973775A13A231ECAD9BAD0AF9)
Полное имя : D:VideoКонсьерж.1993.BDRip.720pКонсьерж.1993.BDRip.720p.mkv
Формат : Matroska
Версия формата : Version 4 / Version 2
Размер файла : 3,91 Гбайт
Продолжительность : 1 ч. 35 м.
Общий поток : 5874 Кбит/сек
Название фильма : BDRip -- STarankov
Дата кодирования : UTC 2015-10-07 15:53:03
Программа кодирования : mkvmerge v8.2.0 ('World of Adventure') 64bit
Библиотека кодирования : libebml v1.3.1 + libmatroska v1.4.2
DURATION : 01:35:06.656000000
NUMBER_OF_FRAMES : 178333
NUMBER_OF_BYTES : 136959744
_STATISTICS_WRITING_APP : mkvmerge v8.2.0 ('World of Adventure') 64bit
_STATISTICS_WRITING_DATE_UTC : 2015-10-07 15:53:03
_STATISTICS_TAGS : BPS DURATION NUMBER_OF_FRAMES NUMBER_OF_BYTES

Видео
Идентификатор : 1
Формат : AVC
Формат/Информация : Advanced Video Codec
Профиль формата : High@L4.1
Параметр CABAC формата : Да
Параметр ReFrames формата : 9 кадров
Идентификатор кодека : V_MPEG4/ISO/AVC
Продолжительность : 1 ч. 35 м.
Битрейт : 5181 Кбит/сек
Ширина : 1280 пикселей
Высота : 694 пикселя
Соотношение сторон : 1,85:1
Режим частоты кадров : Постоянный
Частота кадров : 23,976 кадра/сек
Цветовое пространство : YUV
Субдискретизация насыщенности : 4:2:0
Битовая глубина : 8 бит
Тип развёртки : Прогрессивная
Бит/(Пиксели*Кадры) : 0.243
Размер потока : 3,44 Гбайт (88%)
Библиотека кодирования : x264 core 146 r2538 121396c
Настройки программы : cabac=1 / ref=9 / deblock=1:-3:-3 / analyse=0x3:0x113 / me=umh / subme=10 / psy=1 / psy_rd=1.00:0.15 / mixed_ref=1 / me_range=32 / chroma_me=1 / trellis=2 / 8x8dct=1 / cqm=0 / deadzone=21,11 / fast_pskip=1 / chroma_qp_offset=-3 / threads=6 / lookahead_threads=1 / sliced_threads=0 / nr=0 / decimate=1 / interlaced=0 / bluray_compat=0 / constrained_intra=0 / bframes=10 / b_pyramid=2 / b_adapt=2 / b_bias=0 / direct=1 / weightb=1 / open_gop=0 / weightp=2 / keyint=230 / keyint_min=23 / scenecut=40 / intra_refresh=0 / rc_lookahead=40 / rc=crf / mbtree=0 / crf=20.3 / qcomp=0.60 / qpmin=0 / qpmax=69 / qpstep=4 / vbv_maxrate=40000 / vbv_bufsize=50000 / crf_max=0.0 / nal_hrd=none / filler=0 / ip_ratio=1.40 / pb_ratio=1.30 / aq=1:1.00
Язык : English
Default : Да
Forced : Нет
DURATION : 01:35:10.705000000
NUMBER_OF_FRAMES : 136920
NUMBER_OF_BYTES : 3780618651
_STATISTICS_WRITING_APP : mkvmerge v8.2.0 ('World of Adventure') 64bit
_STATISTICS_WRITING_DATE_UTC : 2015-10-07 15:53:03
_STATISTICS_TAGS : BPS DURATION NUMBER_OF_FRAMES NUMBER_OF_BYTES

Аудио #1
Идентификатор : 2
Формат : AC-3
Формат/Информация : Audio Coding 3
Расширение режима : CM (complete main)
Параметр Endianness формата : Big
Идентификатор кодека : A_AC3
Продолжительность : 1 ч. 35 м.
Вид битрейта : Постоянный
Битрейт : 192 Кбит/сек
Каналы : 2 канала
Расположение каналов : Front: L R
Частота : 48,0 КГц
Метод сжатия : С потерями
Размер потока : 131 Мбайт (3%)
Заголовок : DUB
Язык : Russian
Default : Да
Forced : Нет

Аудио #2
Идентификатор : 3
Формат : AC-3
Формат/Информация : Audio Coding 3
Расширение режима : CM (complete main)
Параметр Endianness формата : Big
Идентификатор кодека : A_AC3
Продолжительность : 1 ч. 35 м.
Вид битрейта : Постоянный
Битрейт : 192 Кбит/сек
Каналы : 2 канала
Расположение каналов : Front: L R
Частота : 48,0 КГц
Метод сжатия : С потерями
Размер потока : 131 Мбайт (3%)
Заголовок : MVO (OPT)
Язык : Russian
Default : Нет
Forced : Нет

Аудио #3
Идентификатор : 4
Формат : AC-3
Формат/Информация : Audio Coding 3
Расширение режима : CM (complete main)
Параметр Endianness формата : Big
Идентификатор кодека : A_AC3
Продолжительность : 1 ч. 35 м.
Вид битрейта : Постоянный
Битрейт : 192 Кбит/сек
Каналы : 2 канала
Расположение каналов : Front: L R
Частота : 48,0 КГц
Метод сжатия : С потерями
Размер потока : 131 Мбайт (3%)
Заголовок : AVO (Василий Горчаков)
Язык : Russian
Default : Нет
Forced : Нет

Общее
Полное имя : D:VideoКонсьерж.1993.BDRip.720pКонсьерж.1993.eng.SDH.srt
Размер файла : 240 Кбайт

Общее
Полное имя : D:VideoКонсьерж.1993.BDRip.720pКонсьерж.1993.MVO.rus.CTC.ac3
Формат : AC-3
Формат/Информация : Audio Coding 3
Размер файла : 130 Мбайт
Продолжительность : 1 ч. 34 м.
Режим общего битрейта : Постоянный
Общий поток : 192 Кбит/сек

Аудио
Формат : AC-3
Формат/Информация : Audio Coding 3
Расширение режима : CM (complete main)
Параметр Endianness формата : Big
Продолжительность : 1 ч. 34 м.
Вид битрейта : Постоянный
Битрейт : 192 Кбит/сек
Каналы : 2 канала
Расположение каналов : Front: L R
Частота : 48,0 КГц
Метод сжатия : С потерями
Размер потока : 130 Мбайт (100%)

Общее
Полное имя : D:VideoКонсьерж.1993.BDRip.720pКонсьерж.1993.Original.eng.ac3
Формат : AC-3
Формат/Информация : Audio Coding 3
Размер файла : 305 Мбайт
Продолжительность : 1 ч. 35 м.
Режим общего битрейта : Постоянный
Общий поток : 448 Кбит/сек

Аудио
Формат : AC-3
Формат/Информация : Audio Coding 3
Расширение режима : CM (complete main)
Параметр Endianness формата : Big
Продолжительность : 1 ч. 35 м.
Вид битрейта : Постоянный
Битрейт : 448 Кбит/сек
Каналы : 6 каналов
Расположение каналов : Front: L C R, Side: L R, LFE
Частота : 48,0 КГц
Метод сжатия : С потерями
Размер потока : 305 Мбайт (100%)

Общее
Полное имя : D:VideoКонсьерж.1993.BDRip.720pКонсьерж.1993.rus.srt
Размер файла : 206 Кбайт





_________________
Проголосуй за трекер Открытый торрент трекер - RUS-MEDIA.ORG

Проголосуй Открытый торрент трекер - RUS-MEDIA.ORG


Вернуться к началу
 Профиль Отправить личное сообщение  
 
   Похожие торренты   Автор   Торрент   Размер 
В этой теме нет новых непрочитанных сообщений. Консьерж / For Love or Money [драма, мелодрама, комедия, 1993] BDRip 1080p, Dub

salma3

15 | 10

10.66 ГБ

В этой теме нет новых непрочитанных сообщений. Бесплатные деньги / Money for Nothing [драма, комедия, криминал, 1993] BDRip, Avo [Горчаков]

salma3

25 | 31

1.46 ГБ

В этой теме нет новых непрочитанных сообщений. Бесплатные деньги / Money for Nothing [драма, комедия, криминал, 1993] BDRip 1080p, Dvo+Avo+Sub

salma3

199 | 159

9.72 ГБ

В этой теме нет новых непрочитанных сообщений. Неспящие в Сиэтле / Sleepless in Seattle [Драма, мелодрама, комедия, 1993] BDRip 720p, Dub

salma3

7 | 7

6.11 ГБ

В этой теме нет новых непрочитанных сообщений. Реальная любовь / Love Actually [драма, мелодрама, комедия, 2003] BDRip 720p, Dub

salma3

2 | 1

7.76 ГБ

В этой теме нет новых непрочитанных сообщений. С любовью, Саймон / Love, Simon [Драма, мелодрама, комедия, 2018] BDRip 720p, Mvo

salma3

0 | 0

5.31 ГБ

В этой теме нет новых непрочитанных сообщений. Любовь, сбивающая с ног / Punch-Drunk Love [триллер, драма, мелодрама, комедия, 2002] BDRip 720p, Dvo

salma3

0 | 0

5.71 ГБ


Начать новую тему Ответить на тему  [ 1 сообщение ] 




Для Мосгорсуда, Роскомнадзора и рекламодателей:: mosgorsud-torrent[собачка]yandex.ru
cron