Торрент файл
скачать торрент магнет ссылка Добавлен: 07 янв 2018, 16:49
Размер: 3.72 ГБ
Сидеров: 302
Личеров: 201
Статус: (salma3)
Автор

СообщениеДобавлено: 07 янв 2018, 16:49 

Не в сети
Супермодератор
Аватара пользователя
Дата регистрации:
15 фев 2012, 16:44
Возраст: 29
Спасибо: 7333 / 2147
Сообщения: 73979
Год выхода: 2017
Жанр: Драма, биография, спорт
Режиссер: Янус Мец

В ролях: Сверрир Гуднасон, Шайа ЛаБаф, Стеллан Скарсгард, Тува Новотны, Лео Борг, Маркус Моссберг, Джексон Гэнн, Скотт Артур, Йен Блэкман, Роберт Эммс

О фильме:
Добро пожаловать в храм тенниса – центральный корт Уимблдона. Здесь в 1980 году разгорелась битва огня и льда, которая изменила мир современного тенниса навсегда. Это идеальное соперничество между игроком у задней линии и отчаянным сеточником. Берн Борг расчетливый и стойкий, как шведская скала. Он первая ракетка мира четырежды завоевавший кубок Уимблдона и нацелен превзойти свой результат. Джон Макинрой - прямая противоположность Боргу, молодая, восходящая звезда тенниса из Америки, обладающая взрывным характером, впервые вышедший в финал Уимблдона. Как оба достигли столь высоких результатов? В этом поможет разобраться биографический фильм. Битва начинается…



Страна: Швеция, Дания, Финляндия
Продолжительность: 01:47:34
Перевод: Дублированный | iTunes

Файл
Качество: WEB-DL 1080p
Видео: MPEG-4 AVC, 1920x804, 4559 Kbit/s, 24.000 fps
Звук: 48 kHz, AC3, 5.1, 384 Kbps | Дублированный | iTunes | RUS

General
Unique ID : 277998964201646200042960174537255566876 (0xD124A728CF50EA7B933AB09258E63E1C)
Complete name : G:VideoSSDBorg.McEnroe.2017.WEB-DL.1080p.ExKinoRay.mkv
Format : Matroska
Format version : Version 4 / Version 2
File size : 3.72 GiB
Duration : 1 h 47 min
Overall bit rate : 4 945 kb/s
Encoded date : UTC 2018-01-07 12:27:52
Writing application : mkvmerge v19.0.0 ('Brave Captain') 64-bit
Writing library : libebml v1.3.5 + libmatroska v1.4.8

Video
ID : 1
Format : AVC
Format/Info : Advanced Video Codec
Format profile : High@L4
Format settings : CABAC / 5 Ref Frames
Format settings, CABAC : Yes
Format settings, ReFrames : 5 frames
Codec ID : V_MPEG4/ISO/AVC
Duration : 1 h 47 min
Bit rate : 4 559 kb/s
Width : 1 920 pixels
Height : 804 pixels
Display aspect ratio : 2.40:1
Frame rate mode : Constant
Frame rate : 24.000 FPS
Color space : YUV
Chroma subsampling : 4:2:0
Bit depth : 8 bits
Scan type : Progressive
Bits/(Pixel*Frame) : 0.123
Stream size : 3.43 GiB (92%)
Language : English
Default : Yes
Forced : No
Color range : Limited
Color primaries : BT.709
Transfer characteristics : BT.709
Matrix coefficients : BT.709

Audio
ID : 2
Format : AC-3
Format/Info : Audio Coding 3
Codec ID : A_AC3
Duration : 1 h 47 min
Bit rate mode : Constant
Bit rate : 384 kb/s
Channel(s) : 6 channels
Channel positions : Front: L C R, Side: L R, LFE
Sampling rate : 48.0 kHz
Frame rate : 31.250 FPS (1536 SPF)
Bit depth : 16 bits
Compression mode : Lossy
Stream size : 295 MiB (8%)
Title : iTunes
Language : Russian
Service kind : Complete Main
Default : Yes
Forced : No

Menu
00:00:00.000 : en:Глава 1
00:08:46.375 : en:Глава 2
00:16:57.583 : en:Глава 3
00:23:56.541 : en:Глава 4
00:30:08.499 : en:Глава 5
00:37:06.207 : en:Глава 6
00:42:22.665 : en:Глава 7
00:48:13.123 : en:Глава 8
00:53:49.706 : en:Глава 9
01:00:37.789 : en:Глава 10
01:06:30.080 : en:Глава 11
01:11:20.288 : en:Глава 12
01:17:41.746 : en:Глава 13
01:24:55.579 : en:Глава 14
01:32:33.079 : en:Глава 15


Релиз от: Автор релиза:


_________________
Проголосуй за трекер Открытый торрент трекер - RUS-MEDIA.ORG

Проголосуй Открытый торрент трекер - RUS-MEDIA.ORG


Вернуться к началу
 Профиль Отправить личное сообщение  
 
   Похожие торренты   Автор   Торрент   Размер 
В этой теме нет новых непрочитанных сообщений. Борг/Макинрой / Borg McEnroe [Драма, биография, спорт, 2017] HDRip, Dub [iTunes]

salma3

125 | 10

1.37 ГБ

В этой теме нет новых непрочитанных сообщений. Борг/Макинрой / Borg McEnroe [Драма, биография, спорт, 2017] WEB-DLRip, Dub [iTunes]

salma3

897 | 149

1.46 ГБ

В этой теме нет новых непрочитанных сообщений. Борг/Макинрой / Borg McEnroe [драма, биография, спорт, 2017] WEB-DL 720p, Dub [iTunes]

salma3

155 | 10

3.34 ГБ

В этой теме нет новых непрочитанных сообщений. Борг/Макинрой / Borg McEnroe [Драма, биография, спорт, 2017] WEB-DLRip, Dub [iTunes] [КПК]

salma3

14 | 0

408.94 МБ

В этой теме нет новых непрочитанных сообщений. Андердог / Sommeren '92 [драма, комедия, биография, спорт, 2015] WEB-DL 1080p, Dub [iTunes]

salma3

360 | 47

3.52 ГБ

В этой теме нет новых непрочитанных сообщений. Королева Катве / Queen of Katwe [Драма, биография, спорт, 2016] BDRip 1080p, Mvo+Sub [iTunes]

salma3

132 | 46

15.47 ГБ

В этой теме нет новых непрочитанных сообщений. Реальный Рокки / Чак / The Bleeder / Chuck [Драма, биография, спорт, 2016] BDRemux 1080p, Mvo [iTunes]

salma3

0 | 0

27.03 ГБ


Начать новую тему Ответить на тему  [ 1 сообщение ] 




Для Мосгорсуда, Роскомнадзора и рекламодателей:: mosgorsud-torrent[собачка]yandex.ru
cron