COVID-19 - Последняя информация о коронавирусе на сайте Минздрава




Торрент файл
скачать торрент магнет ссылка Добавлен: 07 янв 2018, 12:49
Размер: 63.93 ГБ
Сидеров: 6
Личеров: 20
Статус: (salma3)
Автор

СообщениеДобавлено: 07 янв 2018, 12:49 

Не в сети
Супермодератор
Аватара пользователя
Дата регистрации:
15 фев 2012, 16:44
Возраст: 30
Спасибо: 8263 / 2148
Сообщения: 96287
Год выхода: 2009
Жанр: Фэнтези, мелодрама, приключения
Режиссер: Дэвид Йейтс

В ролях: Дэниэл Рэдклифф, Руперт Гринт, Эмма Уотсон, Джим Бродбент, Эларика Галлахер, Робби Колтрейн, Майкл Гэмбон, Мэгги Смит, Алан Рикман, Бонни Райт, Эванна Линч, Джеральдин Сомервилль, Джемма Джонс, Девон Мюррэй, Наталия Тена, Афшан Азад

О фильме:
Экранизация одноименного романа Дж. К. Роулинг. Теперь не только мир волшебников, но и мир маглов ощущает на себе все возрастающую силу Волан-де-Морта, а Хогвартс уже никак не назовешь надежным убежищем, каким он был раньше. Гарри подозревает, что в самом замке затаилась некая опасность, но Дамблдор больше сосредоточен на том, чтобы подготовить его к финальной схватке, которая, как он знает, уже не за горами. Вместе они пытаются разгадать секрет бессмертия Волан-де-Морта, а для этого Дамблдор приглашает на должность преподавателя по зельеварению своего старинного друга и коллегу — профессора Горация Слизнорта, который обожает устраивать вечеринки для избранных и гордится своими обширными связями в высших кругах. Но этот бонвиван и не подозревает, что как раз от него Дамблдор надеется заполучить самую важную информацию о крестражах. Тем временем учеников атакуют самые разные враги, а подростковые эмоции хлещут через край. Гарри начинает понимать, что становится все более неравнодушным к Джинни, однако, и Дин Томас тоже. А Лаванда Браун вбила себе в голову, что Рон — тот самый единственный, которого она ждет, да вот только не учла волшебного эффекта шоколадных конфет Ромильды Вейн! Ну и, наконец, Гермиона пылает жгучей ревностью, но старается не показывать своих чувств. Пока романтические отношения расцветают, лишь один ученик остается в стороне. Он твердо намерен оставить свою метку, темную метку. Любовь витает в воздухе, но впереди ждет беда, и Хогвартс, возможно, уже никогда не будет прежним



Страна: США, Великобритания
Продолжительность: 02:33:31
Перевод: Дублированный, профессиональный двухголосый, авторский

Файл
Кодек: MPEG-H HEVC HDR Video
Качество: BDRemux 2160p
Видео: 49.9 Mбит/с, 3840x2160, 23.976 fps
Аудио 1: Русский 48 kHz, AC3, 6 ch 448 Kbps - Дубляж
Аудио 2: Русский 48 kHz, DTS, 6ch, 755 Kbps - Профессиональный двухголосый (Нордиск)
Аудио 3: Русский 48 kHz, AC3, 6 ch 448 Kbps - Авторский (Сербин)
Аудио 4: Украинский 48 kHz, AC3, 6 ch 448 Kbps - Дубляж
Аудио 5: Английский 48 kHz, DTS, 5ch, 1510 Kbps - Оригинал
Аудио 6: Английский 48 kHz, DTS-X MA, 8ch, 3689 Kbps - Оригинал
Аудио 7: Английский 48 kHz, AC3, 2 ch, 192 Kbps - Оригинал+Audiodeion
Аудио 8: Немецкий 48 kHz, DTS-HD MA, 6 ch, 2171 Kbps
Субтитры: русские (полные, форсированные), украинские (полные, форсированные), английские


Видео
Идентификатор : 1
Формат : HEVC
Формат/Информация : High Efficiency Video Coding
Профиль формата : Main 10@L5.1@High
Идентификатор кодека : V_MPEGH/ISO/HEVC
Продолжительность : 2 ч. 33 м.
Битрейт : 49,9 Мбит/сек
Ширина : 3840 пикселей
Высота : 2160 пикселей
Соотношение сторон : 16:9
Режим частоты кадров : Постоянный
Частота кадров : 23,976 (24000/1001) кадра/сек
Цветовое пространство : YUV
Субдискретизация насыщенности : 4:2:0 (Type 2)
Битовая глубина : 10 бит
Бит/(Пиксели*Кадры) : 0.251
Размер потока : 53,6 Гбайт (84%)
Default : Да
Forced : Нет
Цветовой диапазон : Limited
Основные цвета : BT.2020
Характеристики трансфера : PQ
Коэффициенты матрицы : BT.2020 non-constant
MasteringDisplay_ColorPrimaries : R: x=0.680000 y=0.320000, G: x=0.265000 y=0.690000, B: x=0.150000 y=0.060000, White point: x=0.312700 y=0.329000
MasteringDisplay_Luminance : min: 0.0050 cd/m2, max: 4000.0000 cd/m2
MaxCLL : 500 cd/m2
MaxFALL : 200 cd/m2

Аудио #1
Идентификатор : 2
Формат : AC-3
Формат/Информация : Audio Coding 3
Параметр Endianness формата : Big
Идентификатор кодека : A_AC3
Продолжительность : 2 ч. 33 м.
Вид битрейта : Постоянный
Битрейт : 448 Кбит/сек
Каналы : 6 каналов
Расположение каналов : Front: L C R, Side: L R, LFE
Частота : 48,0 КГц
Частота кадров : 31,250 кадров/сек (1536 SPF)
Битовая глубина : 16 бит
Метод сжатия : С потерями
Размер потока : 492 Мбайт (1%)
Заголовок : AC3 5.1 @ 448 кб/с - (Дублированный) Blu-ray CEE
Язык : Russian
ServiceKind/String : Complete Main
Default : Да
Forced : Нет

Аудио #2
Идентификатор : 3
Формат : DTS
Формат/Информация : Digital Theater Systems
Режим : 16
Параметр Endianness формата : Big
Идентификатор кодека : A_DTS
Продолжительность : 2 ч. 33 м.
Вид битрейта : Постоянный
Битрейт : 755 Кбит/сек
Каналы : 6 каналов
Расположение каналов : Front: L C R, Side: L R, LFE
Частота : 48,0 КГц
Частота кадров : 93,750 кадра/сек (512 SPF)
Битовая глубина : 24 бит
Метод сжатия : С потерями
Размер потока : 828 Мбайт (1%)
Заголовок : DTS 5.1 @ 755 кб/с - (Двухголосый) Нордиск
Язык : Russian
Default : Нет
Forced : Нет

Аудио #3
Идентификатор : 4
Формат : AC-3
Формат/Информация : Audio Coding 3
Параметр Endianness формата : Big
Идентификатор кодека : A_AC3
Продолжительность : 2 ч. 33 м.
Вид битрейта : Постоянный
Битрейт : 448 Кбит/сек
Каналы : 6 каналов
Расположение каналов : Front: L C R, Side: L R, LFE
Частота : 48,0 КГц
Частота кадров : 31,250 кадров/сек (1536 SPF)
Битовая глубина : 16 бит
Метод сжатия : С потерями
Размер потока : 492 Мбайт (1%)
Заголовок : AC3 5.1 @ 448 кб/с - (Одноголосый) Ю. Сербин
Язык : Russian
ServiceKind/String : Complete Main
Default : Нет
Forced : Нет

Аудио #4
Идентификатор : 5
Формат : AC-3
Формат/Информация : Audio Coding 3
Параметр Endianness формата : Big
Идентификатор кодека : A_AC3
Продолжительность : 2 ч. 33 м.
Вид битрейта : Постоянный
Битрейт : 448 Кбит/сек
Каналы : 6 каналов
Расположение каналов : Front: L C R, Side: L R, LFE
Частота : 48,0 КГц
Частота кадров : 31,250 кадров/сек (1536 SPF)
Битовая глубина : 16 бит
Метод сжатия : С потерями
Размер потока : 492 Мбайт (1%)
Заголовок : AC3 5.1 @ 448 кб/с - (Дублированный) Blu-ray CEE
Язык : Ukrainian
ServiceKind/String : Complete Main
Default : Нет
Forced : Нет

Аудио #5
Идентификатор : 6
Формат : DTS
Формат/Информация : Digital Theater Systems
Режим : 16
Параметр Endianness формата : Big
Идентификатор кодека : A_DTS
Продолжительность : 2 ч. 33 м.
Вид битрейта : Постоянный
Битрейт : 1510 Кбит/сек
Каналы : 6 каналов
Расположение каналов : Front: L C R, Side: L R, LFE
Частота : 48,0 КГц
Частота кадров : 93,750 кадра/сек (512 SPF)
Битовая глубина : 24 бит
Метод сжатия : С потерями
Размер потока : 1,62 Гбайт (3%)
Заголовок : DTS 5.1 @ 1510 кб/с - [English]
Язык : English
Default : Нет
Forced : Нет

Аудио #6
Идентификатор : 7
Формат : DTS
Формат/Информация : Digital Theater Systems
Профиль формата : X / MA / Core
Режим : 16
Параметр Endianness формата : Big
Идентификатор кодека : A_DTS
Продолжительность : 2 ч. 33 м.
Вид битрейта : Переменный / Переменный / Постоянный
Битрейт : 3689 Кбит/сек / 3689 Кбит/сек / 1509 Кбит/сек
Каналы : Object Based / 8 каналов / 6 каналов
Расположение каналов : Object Based / Front: L C R, Side: L R, Back: L R, LFE / Front: L C R, Side: L R, LFE
Частота : / 48,0 КГц / 48,0 КГц
Частота кадров : 93,750 кадра/сек (512 SPF)
Битовая глубина : / 24 бит / 24 бит
Метод сжатия : / Lossless / Lossy
Размер потока : 3,96 Гбайт (6%)
Заголовок : DTS-X MA [ORIGINAL]
Язык : English
Default : Нет
Forced : Нет

Аудио #7
Идентификатор : 8
Формат : AC-3
Формат/Информация : Audio Coding 3
Режим : Dolby Digital
Параметр Endianness формата : Big
Идентификатор кодека : A_AC3
Продолжительность : 2 ч. 33 м.
Вид битрейта : Постоянный
Битрейт : 192 Кбит/сек
Каналы : 2 канала
Расположение каналов : Front: L R
Частота : 48,0 КГц
Частота кадров : 31,250 кадров/сек (1536 SPF)
Битовая глубина : 16 бит
Метод сжатия : С потерями
Задержка видео : 22 мс.
Размер потока : 211 Мбайт (0%)
Заголовок : [Audiodescription]
Язык : English
ServiceKind/String : Complete Main
Default : Нет
Forced : Нет

Аудио #8
Идентификатор : 9
Формат : DTS
Формат/Информация : Digital Theater Systems
Профиль формата : MA / Core
Режим : 16
Параметр Endianness формата : Big
Идентификатор кодека : A_DTS
Продолжительность : 2 ч. 33 м.
Вид битрейта : Переменный / Постоянный
Битрейт : 2171 Кбит/сек / 1509 Кбит/сек
Каналы : 6 каналов
Расположение каналов : Front: L C R, Side: L R, LFE
Частота : 48,0 КГц
Частота кадров : 93,750 кадра/сек (512 SPF)
Битовая глубина : 16 бит
Метод сжатия : Без потерь / Lossy
Размер потока : 2,33 Гбайт (4%)
Заголовок : DTS-HD MA [GERMAN]
Язык : German
Default : Нет
Forced : Нет

Текст #1
Идентификатор : 10
Формат : UTF-8
Идентификатор кодека : S_TEXT/UTF8
Идентификатор кодека/Информация : UTF-8 Plain Text
Продолжительность : 1 ч. 37 м.
Битрейт : 1 бит/сек
ElementCount : 18
Размер потока : 848 байт (0%)
Заголовок : RUS.FORCED
Язык : Russian
Default : Да
Forced : Да

Текст #2
Идентификатор : 11
Формат : UTF-8
Идентификатор кодека : S_TEXT/UTF8
Идентификатор кодека/Информация : UTF-8 Plain Text
Продолжительность : 2 ч. 26 м.
Битрейт : 73 бит/сек
ElementCount : 1480
Размер потока : 78,4 Кбайт (0%)
Заголовок : RUS
Язык : Russian
Default : Нет
Forced : Нет

Текст #3
Идентификатор : 12
Формат : UTF-8
Идентификатор кодека : S_TEXT/UTF8
Идентификатор кодека/Информация : UTF-8 Plain Text
Продолжительность : 1 ч. 37 м.
Битрейт : 1 бит/сек
ElementCount : 18
Размер потока : 823 байт (0%)
Заголовок : UKR.FORCED
Язык : Ukrainian
Default : Нет
Forced : Да

Текст #4
Идентификатор : 13
Формат : UTF-8
Идентификатор кодека : S_TEXT/UTF8
Идентификатор кодека/Информация : UTF-8 Plain Text
Продолжительность : 2 ч. 26 м.
Битрейт : 63 бит/сек
ElementCount : 1438
Размер потока : 67,8 Кбайт (0%)
Заголовок : UKR
Язык : Ukrainian
Default : Нет
Forced : Нет

Текст #5
Идентификатор : 14
Формат : UTF-8
Идентификатор кодека : S_TEXT/UTF8
Идентификатор кодека/Информация : UTF-8 Plain Text
Продолжительность : 2 ч. 22 м.
Битрейт : 48 бит/сек
ElementCount : 1447
Размер потока : 50,5 Кбайт (0%)
Заголовок : ENG
Язык : English
Default : Нет
Forced : Нет

Меню
00:00:00.000 : en:Chapter 1
00:05:28.453 : en:Chapter 2
00:12:13.899 : en:Chapter 3
00:14:57.104 : en:Chapter 4
00:18:43.163 : en:Chapter 5
00:22:30.474 : en:Chapter 6
00:27:35.987 : en:Chapter 7
00:32:04.589 : en:Chapter 8
00:37:48.182 : en:Chapter 9
00:44:48.310 : en:Chapter 10
00:49:31.718 : en:Chapter 11
00:54:55.333 : en:Chapter 12
01:00:00.263 : en:Chapter 13
01:03:09.619 : en:Chapter 14
01:05:57.119 : en:Chapter 15
01:09:13.649 : en:Chapter 16
01:14:00.060 : en:Chapter 17
01:21:09.739 : en:Chapter 18
01:26:31.436 : en:Chapter 19
01:33:37.361 : en:Chapter 20
01:39:57.282 : en:Chapter 21
01:43:16.231 : en:Chapter 22
01:48:24.706 : en:Chapter 23
01:52:30.076 : en:Chapter 24
01:56:53.631 : en:Chapter 25
02:02:11.699 : en:Chapter 26
02:08:33.497 : en:Chapter 27
02:15:00.258 : en:Chapter 28
02:19:08.006 : en:Chapter 29
02:23:54.083 : en:Chapter 30



_________________
Проголосуй за трекер Открытый торрент трекер - RUS-MEDIA.ORG

Проголосуй Открытый торрент трекер - RUS-MEDIA.ORG


Скачать книги и аудио книги через торрент


Вернуться к началу
 Профиль Отправить личное сообщение  
 
   Похожие торренты   Автор   Торрент   Размер 
В этой теме нет новых непрочитанных сообщений. Гарри Поттер и Дары смерти: Часть II / Harry Potter and the Deathly Hallows: Part 2 [Фэнтези, приключения, экранизация, 2011] BDRemux 2160p, Dub [4K]

salma3

5 | 18

50.08 ГБ

В этой теме нет новых непрочитанных сообщений. Гарри Поттер и философский камень / Harry Potter and the Sorcerer's Stone [Фэнтези, Приключения, Семейный, 2001] BDRip-HEVC 2160p, Dub

salma3

17 | 1

7.3 ГБ

В этой теме нет новых непрочитанных сообщений. Гарри Поттер и философский камень / Harry Potter and the Sorcerer's Stone [фэнтези, приключения, семейный, 2001] WEB-DL 1080p, Dub [Open Matte]

salma3

23 | 7

22.78 ГБ

В этой теме нет новых непрочитанных сообщений. Гарри Поттер: Коллекция / Harry Potter: Collection [Фэнтези, приключения, семейный, 2001-2011] WEB-DLRip-HEVC 1080p, Dub [Open Matte]

salma3

22 | 11

37.66 ГБ

В этой теме нет новых непрочитанных сообщений. Принц Персии: Пески времени / Prince of Persia: The Sands of Time [фэнтези, боевик, приключения, 2010] WEB-DL 1080p, Dub [Open Matte]

salma3

0 | 0

11.18 ГБ

В этой теме нет новых непрочитанных сообщений. Принц Персии: Пески времени / Prince of Persia: The Sands of Time [фэнтези, боевик, приключения, 2010] WEB-DLRip-AVC, Dub [Open Matte]

salma3

17 | 2

2.91 ГБ

В этой теме нет новых непрочитанных сообщений. Сказочный принц / Prince Charming [фэнтези, мелодрама, комедия, 2001] DVDRip, Dvo

salma3

62 | 34

1.37 ГБ


Начать новую тему Ответить на тему  [ 1 сообщение ] 




Для Мосгорсуда, Роскомнадзора и рекламодателей:: rstracker[собака]yandex.ru
cron