Торрент файл
скачать торрент магнет ссылка Добавлен: 06 янв 2018, 13:45
Размер: 7.83 ГБ
Сидеров: 18
Личеров: 2
Статус: (salma3)
Автор

СообщениеДобавлено: 06 янв 2018, 13:45 

Не в сети
Супермодератор
Аватара пользователя
Дата регистрации:
15 фев 2012, 16:44
Возраст: 28
Спасибо: 7165 / 2147
Сообщения: 62258
Год выхода: 1999
Жанр: Боевик, Приключения, Исторический
Режиссер: Джон Мактирнан

В ролях: Антонио Бандерас, Владимир Кулич, Дайэн Венора, Омар Шариф, Дэннис Сторхо, Нил Маффин, Джон ДеСантис

О фильме:
Ахмед ибн Фахдлан, утонченный аристократ и поэт, в наказание за любовь отправился посланником цивилизованного Востока на варварский Север, к диким и необузданным викингам. Эти храбрые воины готовились к походу против таинственного племени Пожирателей Трупов, опустошающего деревни и оставляющего после себя груду человеческих скелетов.По древнему поверью, только тринадцать воинов могут одолеть звероподобного врага. Но, чтобы пророчество сбылось, один из смельчаков должен быть чужестранцем… Волей счастливого случая или зловещего рока, бывший поэт, а ныне тринадцатый воин берет в руки оружие и отправляется туда, где умолкают даже неустрашимые викинги, чтобы случайно не назвать свой страх по имени.

Страна: США
Продолжительность: 01:42:46
Перевод: Дубляж, Многоголосый закадровый-Superbit, Одноголосый закадровый-А. Гаврилов, «Гоблин» Пучков

Файл
Кодек: x264
Качество: BDRip 720p
Видео: 1280x544, 23.976 fps, 5235 kbps
Звук:
AC3, 384 kb/s (6Ch)-Дубляж-ВидеоСервис
DTS, 768 kb/s (6Ch)-Superbit
DTS, 1536 kb/s (6Ch)-А. Гаврилов
DTS, 1536 kb/s (6Ch)-«Гоблин» Пучков
DTS, 1536 kb/s (6Ch)-Оригинал
Субтитры: русские, английские

General
Unique ID : 37168029810187500342905555200347195413 (0x1BF64D5A42F416E7C282C9D4844BC815)
Complete name : C:UsersstimcoDesktoptest_bdrThe 13th Warrior .1999.BDRIP_720p.CEdition.stimco.mkv
Format : Matroska
Format version : Version 4 / Version 2
File size : 7.83 GiB
Duration : 1 h 42 min
Overall bit rate : 10.9 Mb/s
Movie name : =The 13th Warrior=
Encoded date : UTC 2018-01-05 12:47:39
Writing application : mkvmerge v19.0.0 ('Brave Captain') 64-bit
Writing library : libebml v1.3.5 + libmatroska v1.4.8

Video
ID : 1
Format : AVC
Format/Info : Advanced Video Codec
Format profile : High@L4.1
Format settings : CABAC / 6 Ref Frames
Format settings, CABAC : Yes
Format settings, ReFrames : 6 frames
Codec ID : V_MPEG4/ISO/AVC
Duration : 1 h 42 min
Bit rate : 5 235 kb/s
Width : 1 280 pixels
Height : 544 pixels
Display aspect ratio : 2.35:1
Frame rate mode : Constant
Frame rate : 23.976 (24000/1001) FPS
Color space : YUV
Chroma subsampling : 4:2:0
Bit depth : 8 bits
Scan type : Progressive
Bits/(Pixel*Frame) : 0.314
Stream size : 3.76 GiB (48%)
Title : The 13th Warrior (720p) =stimco=
Writing library : x264 core 155 r2893 b00bcaf
Encoding settings : cabac=1 / ref=6 / deblock=1:-3:-3 / analyse=0x3:0x133 / me=umh / subme=10 / psy=1 / psy_rd=1.00:0.10 / mixed_ref=1 / me_range=40 / chroma_me=1 / trellis=2 / 8x8dct=1 / cqm=0 / deadzone=21,11 / fast_pskip=1 / chroma_qp_offset=-2 / threads=6 / lookahead_threads=1 / sliced_threads=0 / nr=0 / decimate=1 / interlaced=0 / bluray_compat=0 / constrained_intra=0 / bframes=10 / b_pyramid=2 / b_adapt=2 / b_bias=0 / direct=1 / weightb=1 / open_gop=0 / weightp=2 / keyint=230 / keyint_min=23 / scenecut=40 / intra_refresh=0 / rc_lookahead=55 / rc=crf / mbtree=1 / crf=17.0 / qcomp=0.60 / qpmin=0 / qpmax=63 / qpstep=4 / vbv_maxrate=62500 / vbv_bufsize=78125 / crf_max=0.0 / nal_hrd=none / filler=0 / ip_ratio=1.35 / aq=1:0.80
Language : English
Default : Yes
Forced : No

Audio #1
ID : 2
Format : AC-3
Format/Info : Audio Coding 3
Codec ID : A_AC3
Duration : 1 h 42 min
Bit rate mode : Constant
Bit rate : 384 kb/s
Channel(s) : 6 channels
Channel positions : Front: L C R, Side: L R, LFE
Sampling rate : 48.0 kHz
Frame rate : 31.250 FPS (1536 SPF)
Bit depth : 16 bits
Compression mode : Lossy
Stream size : 282 MiB (4%)
Title : dub
Language : Russian
Service kind : Complete Main
Default : Yes
Forced : No

Audio #2
ID : 3
Format : DTS
Format/Info : Digital Theater Systems
Codec ID : A_DTS
Duration : 1 h 42 min
Bit rate mode : Constant
Bit rate : 755 kb/s
Channel(s) : 6 channels
Channel positions : Front: L C R, Side: L R, LFE
Sampling rate : 48.0 kHz
Frame rate : 93.750 FPS (512 SPF)
Bit depth : 24 bits
Compression mode : Lossy
Stream size : 555 MiB (7%)
Title : mvo Superbit
Language : Russian
Default : No
Forced : No

Audio #3
ID : 4
Format : DTS
Format/Info : Digital Theater Systems
Codec ID : A_DTS
Duration : 1 h 42 min
Bit rate mode : Constant
Bit rate : 1 510 kb/s
Channel(s) : 6 channels
Channel positions : Front: L C R, Side: L R, LFE
Sampling rate : 48.0 kHz
Frame rate : 93.750 FPS (512 SPF)
Bit depth : 24 bits
Compression mode : Lossy
Stream size : 1.08 GiB (14%)
Title : avo Gavcrilov
Language : Russian
Default : No
Forced : No

Audio #4
ID : 5
Format : DTS
Format/Info : Digital Theater Systems
Codec ID : A_DTS
Duration : 1 h 42 min
Bit rate mode : Constant
Bit rate : 1 510 kb/s
Channel(s) : 6 channels
Channel positions : Front: L C R, Side: L R, LFE
Sampling rate : 48.0 kHz
Frame rate : 93.750 FPS (512 SPF)
Bit depth : 24 bits
Compression mode : Lossy
Stream size : 1.08 GiB (14%)
Title : avo Goblin
Language : Russian
Default : No
Forced : No

Audio #5
ID : 6
Format : DTS
Format/Info : Digital Theater Systems
Codec ID : A_DTS
Duration : 1 h 42 min
Bit rate mode : Constant
Bit rate : 1 509 kb/s
Channel(s) : 6 channels
Channel positions : Front: L C R, Side: L R, LFE
Sampling rate : 48.0 kHz
Frame rate : 93.750 FPS (512 SPF)
Bit depth : 24 bits
Compression mode : Lossy
Stream size : 1.08 GiB (14%)
Title : eng
Language : English
Default : No
Forced : No

Text #1
ID : 7
Format : UTF-8
Codec ID : S_TEXT/UTF8
Codec ID/Info : UTF-8 Plain Text
Duration : 1 h 37 min
Bit rate : 42 b/s
Count of elements : 691
Stream size : 30.4 KiB (0%)
Title : rus
Language : Russian
Default : No
Forced : No

Text #2
ID : 8
Format : UTF-8
Codec ID : S_TEXT/UTF8
Codec ID/Info : UTF-8 Plain Text
Duration : 1 h 36 min
Bit rate : 28 b/s
Count of elements : 707
Stream size : 20.1 KiB (0%)
Title : eng
Language : English
Default : No
Forced : No

Menu
00:00:00.000 : :00:00:00.000
00:05:00.000 : :00:05:00.000
00:10:00.000 : :00:10:00.000
00:15:00.000 : :00:15:00.000
00:20:00.000 : :00:20:00.000
00:25:00.000 : :00:25:00.000
00:30:00.000 : :00:30:00.000
00:35:00.000 : :00:35:00.000
00:40:00.000 : :00:40:00.000
00:45:00.000 : :00:45:00.000
00:50:00.000 : :00:50:00.000
00:55:00.000 : :00:55:00.000
01:00:00.000 : :01:00:00.000


_________________
Проголосуй за трекер Открытый торрент трекер - RUS-MEDIA.ORG

Проголосуй Открытый торрент трекер - RUS-MEDIA.ORG


Вернуться к началу
 Профиль Отправить личное сообщение  
 
   Похожие торренты   Автор   Торрент   Размер 
В этой теме нет новых непрочитанных сообщений. 13-й воин / The 13th Warrior [Боевик, Приключения, Исторический, 1999] BDRemux 1080p, Dub

salma3

13 | 9

18.4 ГБ

В этой теме нет новых непрочитанных сообщений. 13-й воин / The 13th Warrior [Боевик, Приключения, 1999] BDRip 1080p, Dub

salma3

33 | 10

7.82 ГБ

В этой теме нет новых непрочитанных сообщений. Железный воин / Стальной воин / Iron Warrior [фэнтези, боевик, драма, 1987] HDTV 1080i, Dvo [НТВ +]

salma3

47 | 38

3.72 ГБ

В этой теме нет новых непрочитанных сообщений. Воин / Warrior [драма, спорт, 2011] BDRip 720p, Mvo

salma3

78 | 28

6.22 ГБ

В этой теме нет новых непрочитанных сообщений. Субботний воин / Saturday's Warrior [мюзикл, 2016] BDRip 720p, Mvo

salma3

40 | 20

4.63 ГБ

В этой теме нет новых непрочитанных сообщений. Мирный воин / Peaceful Warrior [Драма, мелодрама, спорт, биография, 2006] BDRip 720p, Mvo+Sub

salma3

136 | 11

4.31 ГБ

В этой теме нет новых непрочитанных сообщений. Смертоносный воин / Death Warrior [Боевик, драма, 2009] HDRip, Mvo+Dvo

salma3

195 | 23

1.45 ГБ


Начать новую тему Ответить на тему  [ 1 сообщение ] 




Для Мосгорсуда, Роскомнадзора и рекламодателей:: mosgorsud-torrent[собачка]yandex.ru
cron