Торрент файл
скачать торрент магнет ссылка Добавлен: 03 янв 2018, 17:11
Размер: 8.16 ГБ
Сидеров: 25
Личеров: 25
Статус: (salma3)
Автор

СообщениеДобавлено: 03 янв 2018, 17:11 

Не в сети
Супермодератор
Аватара пользователя
Дата регистрации:
15 фев 2012, 16:44
Возраст: 28
Спасибо: 7290 / 2147
Сообщения: 70480
Год выхода: 2009
Жанр: комедия, фантастика
Режиссер: Стефен Маддогс / Stephan Maddogs

В ролях: Алан Тик, Дэвид Фаустино, Корин Немец, Дэвид ДеЛуис, Майкл Уинслоу, Уильям Хэйз, Андреа Фаустино, Кенни Бабель, Кристин Скотт Беннетт

О фильме:
В госпитале "Северное милосердие" не хватает докторов, потому как некий адвокат-прощелыга подаёт иск за каждую ошибку лечения, если таковой и не было. Тогда крупная корпорация, в чьей ведении находится госпиталь, создаёт первого робота-доктора умеющего всё и способного заменить любого доктора и даже бригаду докторов. Дело ясное, что такой поворот не по душе адвокату и тогда...



Страна: США
Продолжительность: 01:35:41
Перевод: Профессиональный (одноголосый) [BBC Saint-Petersburg]

Файл
Формат: MKV
Качество: WEB-DL 1080p
Видео: AVC, 1920x1080, 11184 kbps, 23.976 fps,
Аудио 1: AC3, 384 kbps, 5.1 ch, 48000 Hz - BBC Saint-Petersburg
Аудио 2: EAC3, 640 kbps, 5.1 ch, 48000 Hz - Original
Субтитры: английские

Format : Matroska
Format version : Version 2
File size : 8.16 GiB
Duration : 1 h 35 min
Overall bit rate mode : Variable
Overall bit rate : 12.2 Mb/s
Movie name : Доктор Робот / RoboDoc (2009) WEB-DL 1080p
Encoded date : UTC 2018-01-03 12:28:05
Writing application : mkvmerge v8.3.0 ('Over the Horizon') 32bit
Writing library : libebml v1.3.1 + libmatroska v1.4.2
Cover : Yes
Attachments : cover.png

Video
ID : 1
Format : AVC
Format/Info : Advanced Video Codec
Format profile : High@L4
Format settings : CABAC / 4 Ref Frames
Format settings, CABAC : Yes
Format settings, RefFrames : 4 frames
Codec ID : V_MPEG4/ISO/AVC
Duration : 1 h 35 min
Bit rate mode : Variable
Bit rate : 10.9 Mb/s
Maximum bit rate : 15.0 Mb/s
Width : 1 920 pixels
Height : 1 080 pixels
Display aspect ratio : 16:9
Frame rate mode : Constant
Frame rate : 23.976 (24000/1001) FPS
Color space : YUV
Chroma subsampling : 4:2:0
Bit depth : 8 bits
Scan type : Progressive
Bits/(Pixel*Frame) : 0.220
Stream size : 7.32 GiB (90%)
Title : RoboDoc.2009.1080p.Amazon.WEB-DL.DD+5.1.H.264
Language : English
Default : Yes
Forced : No
Color range : Limited
Color primaries : BT.709
Transfer characteristics : BT.709
Matrix coefficients : BT.709

Audio #1
ID : 2
Format : AC-3
Format/Info : Audio Coding 3
Codec ID : A_AC3
Duration : 1 h 35 min
Bit rate mode : Constant
Bit rate : 384 kb/s
Channel(s) : 6 channels
Channel positions : Front: L C R, Side: L R, LFE
Sampling rate : 48.0 kHz
Frame rate : 31.250 FPS (1536 SPF)
Bit depth : 16 bits
Compression mode : Lossy
Stream size : 263 MiB (3%)
Title : BBC Saint-Petersburg
Language : Russian
Service kind : Complete Main
Default : Yes
Forced : No

Audio #2
ID : 3
Format : E-AC-3
Format/Info : Enhanced Audio Coding 3
Codec ID : A_EAC3
Duration : 1 h 35 min
Bit rate mode : Constant
Bit rate : 640 kb/s
Channel(s) : 6 channels
Channel positions : Front: L C R, Side: L R, LFE
Sampling rate : 48.0 kHz
Frame rate : 187.500 FPS (256 SPF)
Compression mode : Lossy
Stream size : 438 MiB (5%)
Language : English
Service kind : Complete Main
Default : No
Forced : No

Text
ID : 4
Format : UTF-8
Codec ID : S_TEXT/UTF8
Codec ID/Info : UTF-8 Plain Text
Language : English
Default : No
Forced : No




_________________
Проголосуй за трекер Открытый торрент трекер - RUS-MEDIA.ORG

Проголосуй Открытый торрент трекер - RUS-MEDIA.ORG


Вернуться к началу
 Профиль Отправить личное сообщение  
 
   Похожие торренты   Автор   Торрент   Размер 
В этой теме нет новых непрочитанных сообщений. Доктор с другой планеты / Доктор Пришелец / Доктор Чужой / Dr. Alien [фантастика, комедия, 1989] DVDRip, Avo

salma3

70 | 10

1.46 ГБ

В этой теме нет новых непрочитанных сообщений. Робот, Сори / Сори: Голос от сердца / Робот-Звук / Robot, Sori / Sori: Voice From The Heart / Robot Sound [фантастика, драма, комедия, 2016] HDRip, Dvo

salma3

109 | 23

1.48 ГБ

В этой теме нет новых непрочитанных сообщений. Доктор Кто / Doctor Who [9 сезон: 1-12 серии из 12 + пролог] (Стивен Моффат) [2015, фантастика, комедия, WEB-DL 1080p | BaibaKo]

Nickolas3435

1 | 1

23.73 ГБ

В этой теме нет новых непрочитанных сообщений. Я, робот / I, Robot [Фантастика, боевик, триллер, 2004] BDRemux 1080p, Dub

salma3

0 | 0

24.59 ГБ

В этой теме нет новых непрочитанных сообщений. Робот / Robot / Endhiran [Фантастика, Боевик, Мелодрама, 2010] BDRip 1080p, Mvo

salma3

17 | 10

16.59 ГБ

В этой теме нет новых непрочитанных сообщений. Я, робот / I, Robot [Фантастика, боевик, триллер, 2004] BDRemux 1080p, Dub [Open Matte]

salma3

0 | 0

29.55 ГБ

В этой теме нет новых непрочитанных сообщений. Меня зовут Джиг Робот / Lo chiamavano Jeeg Robot [фантастика, боевик, триллер, 2015] BDRemux 1080p, Avo

salma3

52 | 36

30.97 ГБ


Начать новую тему Ответить на тему  [ 1 сообщение ] 




Для Мосгорсуда, Роскомнадзора и рекламодателей:: mosgorsud-torrent[собачка]yandex.ru
cron