COVID-19 - Последняя информация о коронавирусе на сайте Минздрава




Торрент файл
скачать торрент магнет ссылка Добавлен: 03 янв 2018, 16:53
Размер: 22.09 ГБ
Сидеров: 3
Личеров: 2
Статус: (salma3)
Автор

СообщениеДобавлено: 03 янв 2018, 16:53 

Не в сети
Супермодератор
Аватара пользователя
Дата регистрации:
15 фев 2012, 16:44
Возраст: 31
Спасибо: 8273 / 2148
Сообщения: 96527
Год выхода: 1975
Жанр: ужасы, фантастика
Режиссер: Дэвид Кроненберг

В ролях: Пол Хэмптон, Джо Силвер, Линн Лаури, Аллан Колмэн, Сьюзен Питри, Барбара Стил, Рональд Млодзик, Камил Дюшарм, Анна Поснанска

О фильме: В жилом массиве на острове около Монреаля безумный ученый тестирует выведенного им генетически спроектированного паразита на своей любовнице. Он полагает, что человек — животное, которое думает слишком много, и вывел паразита, чтобы увеличить у людей уровень насилия и сексуального желания. Но происходит бесконтрольное распространение инфекции и скоро другие обитатели жилого комплекса заражаются паразитами. Очень быстро они превращаются в жестоких сексуальных маньяков…



Страна: Канада
Продолжительность: 01:27:54
Перевод 1: Профессиональный (двухголосый закадровый)
Перевод 2: Авторский (одноголосый закадровый) Сергей Визгунов
Cубтитры: русские, английские

Файл
Кодек: x264
Качество: BDRemux 1080p
Видео: 13.0 Mbps / 1278x720p / 23.976 fps / 16:9 / High Profile 4.1
Аудио 1: Russian Dolby Digital Audio 192 kbps 2.0 / 48 kHz | DVO
Аудио 2: Russian Dolby Digital Audio 192 kbps 2.0 / 48 kHz | Сергей Визгунов
Аудио 3: DTS-HD Master Audio English 1.0 / 48 kHz / ~726 kbps / 24-bit (DTS Core: 1.0 / 48 kHz / 384 kbps / 24-bit)

General
Unique ID : 186377561218069560299057864301660299342 (0x8C37033A7C663194B5A7898C4E6F604E)
Complete name : Судороги (1975. Shivers).mkv
Format : Matroska
Format version : Version 2
File size : 22.1 GiB
Duration : 1h 27mn
Overall bit rate mode : Variable
Overall bit rate : 36.0 Mbps
Encoded date : UTC 2016-03-13 09:43:32
Writing application : mkvmerge v4.9.1 ('Ich will') сборка от Jul 11 2011 23:53:15
Writing library : libebml v1.2.1 + libmatroska v1.1.1
Cover : Yes
Attachments : cover.jpg

Video
ID : 1
Format : AVC
Format/Info : Advanced Video Codec
Format profile : High@L4.1
Format settings, CABAC : Yes
Format settings, ReFrames : 3 frames
Codec ID : V_MPEG4/ISO/AVC
Duration : 1h 27mn
Bit rate mode : Variable
Nominal bit rate : 35.0 Mbps
Maximum bit rate : 40.0 Mbps
Width : 1 920 pixels
Height : 1 080 pixels
Display aspect ratio : 16:9
Frame rate mode : Constant
Frame rate : 23.976 (24000/1001) fps
Color space : YUV
Chroma subsampling : 4:2:0
Bit depth : 8 bits
Scan type : Progressive
Bits/(Pixel*Frame) : 0.704
Title : Shivers 1975 1080p Blu-ray AVC LPCM 1.0-PCH
Writing library : x264 core 128 r2216 198a7ea
Encoding settings : cabac=1 / ref=4 / deblock=0:-1:-1 / analyse=0x3:0x133 / me=umh / subme=9 / psy=1 / psy_rd=1.00:0.15 / mixed_ref=1 / me_range=24 / chroma_me=1 / trellis=2 / 8x8dct=1 / cqm=0 / deadzone=21,11 / fast_pskip=1 / chroma_qp_offset=-3 / threads=12 / lookahead_threads=2 / sliced_threads=0 / slices=4 / nr=0 / decimate=1 / interlaced=0 / bluray_compat=1 / constrained_intra=0 / bframes=3 / b_pyramid=1 / b_adapt=2 / b_bias=0 / direct=3 / weightb=1 / open_gop=1 / weightp=1 / keyint=24 / keyint_min=1 / scenecut=40 / intra_refresh=0 / rc_lookahead=24 / rc=2pass / mbtree=0 / bitrate=35000 / ratetol=1.0 / qcomp=0.60 / qpmin=0 / qpmax=69 / qpstep=4 / cplxblur=20.0 / qblur=0.5 / vbv_maxrate=40000 / vbv_bufsize=30000 / nal_hrd=vbr / ip_ratio=1.40 / pb_ratio=1.30 / aq=0 / zones=0,500,b=3.0
Language : English
Default : Yes
Forced : No
Color range : Limited
Color primaries : BT.709
Transfer characteristics : BT.709
Matrix coefficients : BT.709

Audio #1
ID : 2
Format : AC-3
Format/Info : Audio Coding 3
Mode extension : CM (complete main)
Format settings, Endianness : Big
Codec ID : A_AC3
Duration : 1h 27mn
Bit rate mode : Constant
Bit rate : 192 Kbps
Channel(s) : 2 channels
Channel positions : Front: L R
Sampling rate : 48.0 KHz
Frame rate : 31.250 fps (1536 spf)
Compression mode : Lossy
Stream size : 121 MiB (1%)
Title : DVO
Language : Russian
Default : Yes
Forced : No

Audio #2
ID : 3
Format : AC-3
Format/Info : Audio Coding 3
Mode extension : CM (complete main)
Format settings, Endianness : Big
Codec ID : A_AC3
Duration : 1h 27mn
Bit rate mode : Constant
Bit rate : 192 Kbps
Channel(s) : 2 channels
Channel positions : Front: L R
Sampling rate : 48.0 KHz
Frame rate : 31.250 fps (1536 spf)
Compression mode : Lossy
Stream size : 121 MiB (1%)
Title : Сергей Визгунов
Language : Russian
Default : No
Forced : No

Audio #3
ID : 4
Format : DTS
Format/Info : Digital Theater Systems
Format profile : MA / Core
Mode : 16
Format settings, Endianness : Big
Codec ID : A_DTS
Duration : 1h 27mn
Bit rate mode : Variable / Constant
Bit rate : Unknown / 384 Kbps
Channel(s) : 1 channel
Channel positions : Front: C
Sampling rate : 48.0 KHz
Frame rate : 93.750 fps (512 spf)
Bit depth : 24 bits
Compression mode : Lossless / Lossy
Language : English
Default : No
Forced : No

Text #1
ID : 5
Format : UTF-8
Codec ID : S_TEXT/UTF8
Codec ID/Info : UTF-8 Plain Text
Language : Russian
Default : No
Forced : No

Text #2
ID : 6
Format : UTF-8
Codec ID : S_TEXT/UTF8
Codec ID/Info : UTF-8 Plain Text
Language : English
Default : No
Forced : No

Text #3
ID : 7
Format : UTF-8
Codec ID : S_TEXT/UTF8
Codec ID/Info : UTF-8 Plain Text
Title : SDH
Language : English
Default : No
Forced : No

Menu
00:00:00.000 : en:Chapter 1
00:07:39.541 : en:Chapter 2
00:13:00.863 : en:Chapter 3
00:20:30.019 : en:Chapter 4
00:28:55.482 : en:Chapter 5
00:35:21.536 : en:Chapter 6
00:43:31.817 : en:Chapter 7
00:51:55.277 : en:Chapter 8
00:58:40.432 : en:Chapter 9
01:04:37.414 : en:Chapter 10
01:11:05.594 : en:Chapter 11
01:19:45.363 : en:Chapter 12


_________________
Проголосуй за трекер Открытый торрент трекер - RUS-MEDIA.ORG

Проголосуй Открытый торрент трекер - RUS-MEDIA.ORG


Скачать книги и аудио книги через торрент


Вернуться к началу
 Профиль Отправить личное сообщение  
 
   Похожие торренты   Автор   Торрент   Размер 
В этой теме нет новых непрочитанных сообщений. Снафф / Snuff [ужасы, 1975] BDRemux 1080р, Avo

salma3

0 | 0

16.77 ГБ

В этой теме нет новых непрочитанных сообщений. Буровая / The Rig [ужасы, фантастика, триллер, 2010] BDRemux 1080р, Dvo

salma3

26 | 10

17.85 ГБ

В этой теме нет новых непрочитанных сообщений. Сканнеры / Scanners [ужасы, фантастика, триллер, 1981] BDRemux 1080р, Dvo [Criterion Collection]

salma3

0 | 0

26.6 ГБ

В этой теме нет новых непрочитанных сообщений. Галактика ужаса / Galaxy of Terror [ужасы, фантастика, 1981] BDRemux 1080р, Dvo [Remastered]

salma3

0 | 0

21.44 ГБ

В этой теме нет новых непрочитанных сообщений. Газонокосильщик / The Lawnmower Man [ужасы, фантастика, 1992] BDRemux 1080р, Dvo [Режиссерская версия]

salma3

6 | 11

45.72 ГБ

В этой теме нет новых непрочитанных сообщений. Класс 1999 / Class of 1999 [ужасы, фантастика, боевик, 1990] BDRemux 1080р, Dvo

salma3

11 | 3

22.35 ГБ

В этой теме нет новых непрочитанных сообщений. Класс 1999 / Class of 1999 [Фантастика, боевик, ужасы, 1990] BDRemux 1080р, Dvo

salma3

4 | 22

23.8 ГБ


Начать новую тему Ответить на тему  [ 1 сообщение ] 




Для Мосгорсуда, Роскомнадзора и рекламодателей:: rstracker[собака]yandex.ru
cron