Торрент файл
скачать торрент магнет ссылка Добавлен: 02 янв 2018, 13:52
Размер: 4.35 ГБ
Сидеров: 70
Личеров: 17
Статус: (salma3)
Автор

СообщениеДобавлено: 02 янв 2018, 13:52 

Не в сети
Супермодератор
Аватара пользователя
Дата регистрации:
15 фев 2012, 16:44
Возраст: 29
Спасибо: 7377 / 2147
Сообщения: 75909
Год выхода: 2008
Жанр: боевик, триллер, комедия
Режиссер: Джордж Галло / George

В ролях: Антонио Бандерас, Мег Райан , Колин Хэнкс, Селма Блэр, Тревор Морган, John Valdetero, Эли Данкер, Том Адамс, Кит Дэвид, Энрико Колантони и другие

О фильме:
Юный агент ФБР Генри, выполняя очередное задание, покидает родной дом на три года, оставляя в гордом одиночестве свою полную одинокую мамашу Марту. В следующий раз, когда он ее увидит, она уже предстанет перед ним в образе прекрасной разбитной блондинки Марти, которая намерена в последние годы уходящей молодости взять от жизни все.
И в своих стремлениях она, не зная тормозов, заводит романы направо и налево, не гнушаясь ни лысыми итальянскими поварами, ни безусыми юнцами на мотоциклах. От всего происходящего у Генри идет кругом голова, но окончательно почва уйдет у него из-под ног в тот момент, когда Марти повстречает некоего Томми, а Генри на летучке в ФБР прикажут следить за новым ухажером, ввиду широкой известности последнего в Интерполе.



Выпущено: Германия, США
Продолжительность: 01:36:52
Перевод: Профессиональный (полное дублирование) - Пифагор | 2008г.

Файл:
Тип релиза: HDTV 1080i
Контейнер: MKV
Видео: MPEG-4 AVC / PAL 16:9 / 1920x1080 (1,78:1) / 6314 kbps / 25,000 fps / 0.061 bit/pixel / High@L4
Аудио: Russian | Dolby Digital Audio / 5.1 Ch / 48 kHz / 384 kbps / 16-bit | DUB | Пифагор | 2008г.
Субтитры: нет
Навигация по главам: есть


Общее
Уникальный идентификатор : 207206442170428067970271338441220253804 (0x9BE282589C6C31CA96D4288B2B9F686C)
Полное имя : D:My Mom's New Boyfriend 2008 Open Matte 1080i HDTV MPEG4 DD2.0.mkv
Формат : Matroska
Версия формата : Version 4 / Version 2
Размер файла : 4,35 Гбайт
Продолжительность : 1 ч. 32 м.
Общий поток : 6701 Кбит/сек
Дата кодирования : UTC 2017-11-04 15:45:18
Программа кодирования : mkvmerge v17.0.0 ('Be Ur Friend') 64-bit
Библиотека кодирования : libebml v1.3.5 + libmatroska v1.4.8

Видео
Идентификатор : 1
Формат : AVC
Формат/Информация : Advanced Video Codec
Профиль формата : High@L4
Настройки формата : CABAC / 4 Ref Frames
Параметр CABAC формата : Да
Параметр RefFrames формата : 4 кадра
Идентификатор кодека : V_MPEG4/ISO/AVC
Продолжительность : 1 ч. 32 м.
Битрейт : 6314 Кбит/сек
Ширина : 1920 пикселей
Высота : 1080 пикселей
Соотношение сторон : 16:9
Режим частоты кадров : Переменный
Частота кадров : 50,000 кадров/сек
Частота кадров в оригинале : 25,000 кадров/сек
Стандарт вещания : Component
Цветовое пространство : YUV
Субдискретизация насыщенности : 4:2:0
Битовая глубина : 8 бит
Тип развёртки : Чересстрочная
Метод сохранения типа развёртки : Раздельные поля
Порядок развёртки : Верхнее поле первое
Бит/(Пиксели*Кадры) : 0.061
Размер потока : 4,10 Гбайт (94%)
Заголовок : Open Matte | HDTV | ViP Comedy
Язык : English
Default : Да
Forced : Нет
Цветовой диапазон : Limited
Основные цвета : BT.709
Характеристики трансфера : BT.709
Коэффициенты матрицы : BT.709

Аудио
Идентификатор : 2
Формат : AC-3
Формат/Информация : Audio Coding 3
Идентификатор кодека : A_AC3
Продолжительность : 1 ч. 32 м.
Вид битрейта : Постоянный
Битрейт : 384 Кбит/сек
Каналы : 6 каналов
Расположение каналов : Front: L C R, Side: L R, LFE
Частота : 48,0 КГц
Частота кадров : 31,250 кадров/сек (1536 SPF)
Битовая глубина : 16 бит
Метод сжатия : С потерями
Размер потока : 255 Мбайт (6%)
Заголовок : DUB | Пифагор | 2008г.
Язык : Russian
ServiceKind/String : Complete Main
Default : Да
Forced : Нет

Меню
00:00:00.000 : en:Chapter 1
00:03:45.707 : en:Chapter 2
00:06:23.125 : en:Chapter 3
00:09:39.750 : en:Chapter 4
00:16:01.291 : en:Chapter 5
00:20:25.708 : en:Chapter 6
00:27:09.208 : en:Chapter 7
00:32:08.125 : en:Chapter 8
00:41:41.708 : en:Chapter 9
00:45:01.666 : en:Chapter 10
00:52:13.000 : en:Chapter 11
00:59:43.291 : en:Chapter 12
01:04:38.375 : en:Chapter 13
01:09:24.791 : en:Chapter 14
01:18:58.375 : en:Chapter 15
01:27:33.625 : en:Chapter 16
Blu-Ray ---------- vs. ---------- HDTV





Релиз:


_________________
Проголосуй за трекер Открытый торрент трекер - RUS-MEDIA.ORG

Проголосуй Открытый торрент трекер - RUS-MEDIA.ORG


Вернуться к началу
 Профиль Отправить личное сообщение  
 
   Похожие торренты   Автор   Торрент   Размер 
В этой теме нет новых непрочитанных сообщений. Новый парень моей мамы / My Mom's New Boyfriend [боевик, триллер, комедия, 2008] HDTVRip-AVC, Dub [Open Matte]

salma3

0 | 0

1.39 ГБ

В этой теме нет новых непрочитанных сообщений. Новый парень моей мамы / My Mom's New Boyfriend [боевик, триллер, комедия, 2008] BDRip 720p, Dub

salma3

1 | 24

5.7 ГБ

В этой теме нет новых непрочитанных сообщений. Новый парень моей мамы / My Mom's New Boyfriend [боевик, триллер, комедия, 2008] Remux 1080p, Dub

salma3

12 | 8

16.7 ГБ

В этой теме нет новых непрочитанных сообщений. Новый парень моей мамы / My Mom's New Boyfriend [боевик, триллер, комедия, 2008] BDRip 1080p, Dub

salma3

19 | 12

10.11 ГБ

В этой теме нет новых непрочитанных сообщений. Формула 51 / The 51st State [боевик, триллер, комедия, 2001] HDTV 1080i, Dub [Open Matte]

salma3

0 | 0

10.7 ГБ

В этой теме нет новых непрочитанных сообщений. Хищники / Predators [Фантастика, боевик, триллер, 2010] HDTV 1080i, Dub [Open Matte]

salma3

8 | 2

14.7 ГБ

В этой теме нет новых непрочитанных сообщений. Ангелы Чарли 2: Только вперед / Charlie's Angels: Full Throttle [боевик, комедия, криминал, 2003] HDTV 1080i, Dub [Open Matte]

salma3

0 | 1

3.91 ГБ


Начать новую тему Ответить на тему  [ 1 сообщение ] 




Для Мосгорсуда, Роскомнадзора и рекламодателей:: mosgorsud-torrent[собачка]yandex.ru
cron