Торрент файл
скачать торрент магнет ссылка Добавлен: 01 янв 2018, 16:59
Размер: 6.5 ГБ
Сидеров: 21
Личеров: 8
Статус: (salma3)
Автор

СообщениеДобавлено: 01 янв 2018, 16:59 

Не в сети
Супермодератор
Аватара пользователя
Дата регистрации:
15 фев 2012, 16:44
Возраст: 29
Спасибо: 7333 / 2147
Сообщения: 73912
Выпущено: Франция, Италия
Жанр: Детектив, криминал
Год выпуска: 1968
Продолжительность: 01:25:06
Перевод: Профессиональный многоголосый, Авторский

Режиссер: Жорж Лотнер
В ролях: Жан Габен, Дани Каррель, Жан Гавен, Андре Пусс, Луи Арбесье, Жерар Бур, Робер Дальбан, Морис Гаррель,
Пьер Кулак, Фредерик де Паскуале, Анри Коган, Доминик Зарди, Жан Мартен, Серж Генсбур, Ив Габриэлли, Джеральд Брунэо,
Марсель Бернье, Анри Атталь, Ноэль Адам, Луи Сенье, Феликс Мартен, Филипп Валлори, Жан Луизи, Мишель Дюпле, Джермейн Дельба

О Фильме: Комиссару полиции Жоссу остается всего полгода до выхода на заслуженный отдых.
Но тут некая банда совершает жестокое ограбление инкассаторского броневика, перебив всех охранников.
Спустя какое-то время всех участников налета поочередно начинают находить мертвыми.
В довершение всего, у таинственного убийцы доходят руки до Гувена, давнего товарища Жосса. И тогда старому комиссару приходится подключиться к расследованию. Он намерен собственными усилиями найти убийцу и отомстить за своего друга.



Кодек: х264
Качество: BDRip 1080p
Видео: MPEG-4 AVC, 1810x1080, 24.000 fps, 10350 Кбит/с
Аудио 1: Русский: AC3, 48 Khz; 2 ch, 192 Кбит/с, MVO | FilmPrestige
Аудио 2: Русский: AC3, 48 Khz; 2 ch, 192 Кбит/с, Авторский Р. Янкелевич
Аудио 3: Французский: AC3, 48 Khz; 2 ch, 192 Кбит/с, Оригинал
Субтитры: Русские, softsub (SRT)

x264 [info]: frame I:852 Avg QP:15.61 size:309410
x264 [info]: frame P:27010 Avg QP:19.24 size:112521
x264 [info]: frame B:94700 Avg QP:20.78 size: 34911

Общее
Уникальный идентификатор : 255206013830027882414027264058494212609 (0xBFFEE3F167A2EA8BAF4B312F6BA6DA01)
Полное имя : E:Мои рипыБосс 1968_BDRip 1080p_KORSAR.mkv
Формат : Matroska
Версия формата : Version 2
Размер файла : 6,50 Гбайт
Продолжительность : 1 ч. 25 м.
Общий поток : 10,9 Мбит/сек
Название фильма : «Босс / Le Pacha»
Дата кодирования : UTC 2018-01-01 03:35:12
Программа кодирования : mkvmerge v5.8.0 ('No Sleep / Pillow') built on Sep 2 2012 15:37:04
Библиотека кодирования : libebml v1.2.3 + libmatroska v1.3.0
Примечание : BDRip-AVC
Encoded by : imgeorgest®
Original date released : September 23rd 2013

Видео
Идентификатор : 1
Формат : AVC
Формат/Информация : Advanced Video Codec
Профиль формата : High@L4.1
Настройки формата : CABAC / 4 Ref Frames
Параметр CABAC формата : Да
Параметр RefFrames формата : 4 кадра
Идентификатор кодека : V_MPEG4/ISO/AVC
Продолжительность : 1 ч. 25 м.
Битрейт : 10,4 Мбит/сек
Ширина : 1810 пикселей
Высота : 1080 пикселей
Соотношение сторон : 5:3
Режим частоты кадров : Постоянный
Частота кадров : 24,000 кадра/сек
Цветовое пространство : YUV
Субдискретизация насыщенности : 4:2:0
Битовая глубина : 8 бит
Тип развёртки : Прогрессивная
Бит/(Пиксели*Кадры) : 0.221
Размер потока : 6,03 Гбайт (93%)
Библиотека кодирования : x264 core 152 r2851kMod ba24899
Настройки программы : cabac=1 / ref=4 / deblock=1:-2:-1 / analyse=0x3:0x113 / me=umh / subme=11 / psy=1 / fade_compensate=0.00 / psy_rd=1.03:0.06 / mixed_ref=1 / me_range=48 / chroma_me=1 / trellis=2 / 8x8dct=1 / cqm=0 / deadzone=21,11 / fast_pskip=0 / chroma_qp_offset=-3 / threads=12 / lookahead_threads=3 / sliced_threads=0 / nr=0 / decimate=0 / interlaced=0 / bluray_compat=0 / constrained_intra=0 / bframes=11 / b_pyramid=2 / b_adapt=2 / b_bias=0 / direct=3 / weightb=1 / open_gop=0 / weightp=2 / keyint=240 / keyint_min=24 / scenecut=40 / intra_refresh=0 / rc_lookahead=40 / rc=2pass / mbtree=0 / bitrate=10350 / ratetol=1.0 / qcomp=0.60 / qpmin=0 / qpmax=39 / qpstep=4 / cplxblur=20.0 / qblur=0.5 / vbv_maxrate=50000 / vbv_bufsize=62500 / nal_hrd=none / filler=0 / ip_ratio=1.40 / pb_ratio=1.30 / aq=1:0.90
Язык : English
Default : Да
Forced : Нет
Цветовой диапазон : Limited
Основные цвета : BT.709
Характеристики трансфера : BT.709
Коэффициенты матрицы : BT.709

Аудио #1
Идентификатор : 2
Формат : AC-3
Формат/Информация : Audio Coding 3
Режим : Dolby Digital
Параметр Endianness формата : Big
Идентификатор кодека : A_AC3
Продолжительность : 1 ч. 25 м.
Вид битрейта : Постоянный
Битрейт : 192 Кбит/сек
Каналы : 2 канала
Расположение каналов : Front: L R
Частота : 48,0 КГц
Частота кадров : 31,250 кадров/сек (1536 SPF)
Битовая глубина : 16 бит
Метод сжатия : С потерями
Размер потока : 117 Мбайт (2%)
Заголовок : MVO: AC-3; 16 bits 48 Khz; 2.0ch 192 Kbps; CBR | FilmPrestige
Язык : Russian
Default : Да
Forced : Нет

Аудио #2
Идентификатор : 3
Формат : AC-3
Формат/Информация : Audio Coding 3
Параметр Endianness формата : Big
Идентификатор кодека : A_AC3
Продолжительность : 1 ч. 25 м.
Вид битрейта : Постоянный
Битрейт : 192 Кбит/сек
Каналы : 2 канала
Расположение каналов : Front: L R
Частота : 48,0 КГц
Частота кадров : 31,250 кадров/сек (1536 SPF)
Битовая глубина : 16 бит
Метод сжатия : С потерями
Размер потока : 117 Мбайт (2%)
Заголовок : AVO: AC-3; 16 bits 48 Khz; 2.0ch 192 Kbps; CBR | Р. Янкелевич
Язык : Russian
Default : Нет
Forced : Нет

Аудио #3
Идентификатор : 4
Формат : AC-3
Формат/Информация : Audio Coding 3
Параметр Endianness формата : Big
Идентификатор кодека : A_AC3
Продолжительность : 1 ч. 25 м.
Вид битрейта : Постоянный
Битрейт : 192 Кбит/сек
Каналы : 2 канала
Расположение каналов : Front: L R
Частота : 48,0 КГц
Частота кадров : 31,250 кадров/сек (1536 SPF)
Битовая глубина : 16 бит
Метод сжатия : С потерями
Размер потока : 117 Мбайт (2%)
Заголовок : original
Язык : French
Default : Нет
Forced : Нет

Текст
Идентификатор : 5
Формат : UTF-8
Идентификатор кодека : S_TEXT/UTF8
Идентификатор кодека/Информация : UTF-8 Plain Text
Default : Да
Forced : Нет




_________________
Проголосуй за трекер Открытый торрент трекер - RUS-MEDIA.ORG

Проголосуй Открытый торрент трекер - RUS-MEDIA.ORG


Вернуться к началу
 Профиль Отправить личное сообщение  
 
   Похожие торренты   Автор   Торрент   Размер 
В этой теме нет новых непрочитанных сообщений. Босс / Le pacha [Детектив, криминал, 1968] BDRip 720p, Mvo

salma3

14 | 7

3.91 ГБ

В этой теме нет новых непрочитанных сообщений. Детектив Буллитт / Bullitt [детектив, криминал, 1968] BDRip, Mvo

salma3

74 | 9

1.46 ГБ

В этой теме нет новых непрочитанных сообщений. Коломбо / Columbo [S01-13] [криминал, детектив, 1968-2003] BDRip-AVC, Dvo

salma3

0 | 0

67.65 ГБ

В этой теме нет новых непрочитанных сообщений. Переговорщик / The Negotiator [триллер, боевик, криминал, детектив, 1998] BDRip 1080р, Dub

salma3

5 | 25

16.5 ГБ

В этой теме нет новых непрочитанных сообщений. Большой босс / Tang shan da xiong [боевик, драма, криминал, 1971] BDRip-HEVC 1080p, Mvo

salma3

0 | 0

6.8 ГБ

В этой теме нет новых непрочитанных сообщений. Искусственный интеллект. Доступ неограничен / I.T. ( Триллер, драма, криминал, детектив, 2016) BDRip 1080р от ExKinoRay | iTunes

marya111

0 | 0

6.9 ГБ

В этой теме нет новых непрочитанных сообщений. Детектив Буллитт / Bullitt [детектив, криминал, 1968] BDRemux 1080p, Mvo

salma3

12 | 14

14.99 ГБ


Начать новую тему Ответить на тему  [ 1 сообщение ] 




Для Мосгорсуда, Роскомнадзора и рекламодателей:: mosgorsud-torrent[собачка]yandex.ru
cron