Торрент файл
скачать торрент магнет ссылка Добавлен: 29 дек 2017, 14:01
Размер: 6.11 ГБ
Сидеров: 7
Личеров: 7
Статус: (salma3)
Автор

СообщениеДобавлено: 29 дек 2017, 14:01 

Не в сети
Супермодератор
Аватара пользователя
Дата регистрации:
15 фев 2012, 16:44
Возраст: 28
Спасибо: 7224 / 2147
Сообщения: 68044
Год выпуска: 1993
Жанр: Драма, мелодрама, комедия
Выпущено: США, TriStar Pictures
Режиссер: Нора Эфрон

В ролях: Том Хэнкс, Мег Райан, Билл Пуллман, Росс Мэлинджер, Рози О`Доннелл, Гэби Хоффманн, Виктор Гарбер, Рита Уилсон, Барбара Гэррик, Кэри Лоуэлл, Дэвид Хайд Пирс, Дэна Айви, Роб Райнер, Том Риис Фаррелл, Ле Кланше Ду Рэнд, Кевин О'Моррисон, Валери Райт, Фрэнсис Конрой,

О фильме: Поздней ночью радио доносит голос маленького ребёнка, который ищет маму. Сотни женщин со всей страны откликаются на этот зов и только одна из них понимает, отец ребёнка и она предназначены друг для друга, пусть даже между ними сотни миль. И не беда, что она обручена, а её новый избранник ещё не знает о ней. Его единственная и далёкая ждёт и ищет его, влюбившись с первого звука его голоса.



Качество: BDRip 720p
Размер: 6.11 ГБ
Продолжительность: 01:45:05
Видео: MPEG-4 AVC, 6102 Kбит/с, 1280x692
Аудио 1: русский, 48 kHz, AC3, 2 ch, 192 kbps avg, [Дублированный]
Аудио 2: русский, 48 kHz, AC3, 2 ch, 192 kbps avg, [Профессиональный многоголосый]
Аудио 3: русский, 48 kHz, AC3, 2 ch, 192 kbps avg, Алексей Михалёв [Авторский]

Внешние файлы
Аудио: английский, 48 kHz, DTS, 6 ch, 1509 kbps avg, [Оригинал]
Субтитры: русские
Субтитры: английские

Оскар, 1994 год
Номинации (2):
Лучший сценарий
Лучшая песня — «A Wink and a Smile»

Золотой глобус, 1994 год
Номинации (3):
Лучший фильм (комедия или мюзикл)
Лучшая мужская роль (комедия или мюзикл) (Том Хэнкс)
Лучшая женская роль (комедия или мюзикл) (Мег Райан)

Премия канала «MTV», 1994 год
Номинации (3):
Лучшая женская роль (Мег Райан)
Прорыв года (Росс Мэлинджер)
Лучшая песня — «When I Fall In Love»
Лучший экранный дуэт (Том Хэнкс, Мег Райан)

Британская академия, 1994 год
Номинации (2):
Лучший оригинальный сценарий
Лучший саундтрек
Общее
Полное имя : E:VideoNespjashie.v.Sietle.1993.x264.BDRip.720pNespjashie.v.Sietle.1993.eng.srt
Размер файла : 62,5 Кбайт

Общее
Полное имя : E:VideoNespjashie.v.Sietle.1993.x264.BDRip.720pNespjashie.v.Sietle.1993.Original.eng.dts
Формат : DTS
Формат/Информация : Digital Theater Systems
Размер файла : 1,11 Гбайт
Продолжительность : 1 ч. 45 м.
Режим общего битрейта : Постоянный
Общий поток : 1509 Кбит/сек

Аудио
Формат : DTS
Формат/Информация : Digital Theater Systems
Режим : 16
Параметр Endianness формата : Big
Продолжительность : 1 ч. 45 м.
Вид битрейта : Постоянный
Битрейт : 1509 Кбит/сек
Каналы : 6 каналов
Расположение каналов : Front: L C R, Side: L R, LFE
Частота : 48,0 КГц
Битовая глубина : 24 бит
Метод сжатия : С потерями
Размер потока : 1,11 Гбайт (100%)

Общее
Полное имя : E:VideoNespjashie.v.Sietle.1993.x264.BDRip.720pNespjashie.v.Sietle.1993.rus.srt
Размер файла : 79,8 Кбайт

Общее
Уникальный идентификатор : 208964818165819191334236475482649248373 (0x9D3528F9E1D25D1ABF17AEDC6E3DC275)
Полное имя : E:VideoNespjashie.v.Sietle.1993.x264.BDRip.720pNespjashie.v.Sietle.1993.x264.BDRip.720p.mkv
Формат : Matroska
Версия формата : Version 4 / Version 2
Размер файла : 5,00 Гбайт
Продолжительность : 1 ч. 45 м.
Общий поток : 6813 Кбит/сек
Название фильма : Неспящие в Сиэтле / Sleepless in Seattle / 1993 / BDRip -- STarankov
Дата кодирования : UTC 2010-02-22 21:41:31
Программа кодирования : mkvmerge v5.9.0 ('On The Loose') built on Dec 9 2012 15:37:01
Библиотека кодирования : libebml v1.3.0 + libmatroska v1.4.0

Видео
Идентификатор : 1
Формат : AVC
Формат/Информация : Advanced Video Codec
Профиль формата : High@L4.1
Параметр CABAC формата : Да
Параметр ReFrames формата : 9 кадров
Идентификатор кодека : V_MPEG4/ISO/AVC
Продолжительность : 1 ч. 45 м.
Битрейт : 6102 Кбит/сек
Ширина : 1280 пикселей
Высота : 692 пикселя
Соотношение сторон : 1,85:1
Режим частоты кадров : Постоянный
Частота кадров : 23,976 кадра/сек
Цветовое пространство : YUV
Субдискретизация насыщенности : 4:2:0
Битовая глубина : 8 бит
Тип развёртки : Прогрессивная
Бит/(Пиксели*Кадры) : 0.287
Размер потока : 4,48 Гбайт (90%)
Библиотека кодирования : x264 core 133 r2334 a3ac64b
Настройки программы : cabac=1 / ref=9 / deblock=1:-1:-1 / analyse=0x3:0x113 / me=umh / subme=10 / psy=1 / psy_rd=1.00:0.15 / mixed_ref=1 / me_range=24 / chroma_me=1 / trellis=2 / 8x8dct=1 / cqm=0 / deadzone=21,11 / fast_pskip=0 / chroma_qp_offset=-3 / threads=6 / lookahead_threads=1 / sliced_threads=0 / nr=0 / decimate=1 / interlaced=0 / bluray_compat=0 / constrained_intra=0 / bframes=8 / b_pyramid=2 / b_adapt=2 / b_bias=0 / direct=1 / weightb=0 / open_gop=0 / weightp=2 / keyint=230 / keyint_min=23 / scenecut=40 / intra_refresh=0 / rc_lookahead=60 / rc=crf / mbtree=0 / crf=18.0 / qcomp=0.60 / qpmin=0 / qpmax=69 / qpstep=4 / vbv_maxrate=50000 / vbv_bufsize=62500 / crf_max=0.0 / nal_hrd=none / ip_ratio=1.40 / pb_ratio=1.30 / aq=1:0.80
Язык : English
Default : Да
Forced : Нет

Аудио #1
Идентификатор : 2
Формат : AC-3
Формат/Информация : Audio Coding 3
Профиль формата : Dolby Digital
Расширение режима : CM (complete main)
Параметр Endianness формата : Big
Идентификатор кодека : A_AC3
Продолжительность : 1 ч. 45 м.
Вид битрейта : Постоянный
Битрейт : 192 Кбит/сек
Каналы : 2 канала
Расположение каналов : Front: L R
Частота : 48,0 КГц
Битовая глубина : 16 бит
Метод сжатия : С потерями
Размер потока : 144 Мбайт (3%)
Заголовок : DUB
Язык : Russian
Default : Да
Forced : Нет

Аудио #2
Идентификатор : 3
Формат : AC-3
Формат/Информация : Audio Coding 3
Расширение режима : CM (complete main)
Параметр Endianness формата : Big
Идентификатор кодека : A_AC3
Продолжительность : 1 ч. 45 м.
Вид битрейта : Постоянный
Битрейт : 192 Кбит/сек
Каналы : 2 канала
Расположение каналов : Front: L R
Частота : 48,0 КГц
Битовая глубина : 16 бит
Метод сжатия : С потерями
Размер потока : 144 Мбайт (3%)
Заголовок : MVO
Язык : Russian
Default : Нет
Forced : Нет

Аудио #3
Идентификатор : 4
Формат : AC-3
Формат/Информация : Audio Coding 3
Расширение режима : CM (complete main)
Параметр Endianness формата : Big
Идентификатор кодека : A_AC3
Продолжительность : 1 ч. 45 м.
Вид битрейта : Постоянный
Битрейт : 192 Кбит/сек
Каналы : 2 канала
Расположение каналов : Front: L R
Частота : 48,0 КГц
Битовая глубина : 16 бит
Метод сжатия : С потерями
Размер потока : 144 Мбайт (3%)
Заголовок : AVO (Алексей Михалёв)
Язык : Russian
Default : Нет
Forced : Нет




_________________
Проголосуй за трекер Открытый торрент трекер - RUS-MEDIA.ORG

Проголосуй Открытый торрент трекер - RUS-MEDIA.ORG


Вернуться к началу
 Профиль Отправить личное сообщение  
 
   Похожие торренты   Автор   Торрент   Размер 
В этой теме нет новых непрочитанных сообщений. Битва в Сиэтле / Battle in Seattle [драма, 2007] BDRip-AVC, Avo

salma3

0 | 0

1.99 ГБ

В этой теме нет новых непрочитанных сообщений. Битва в Сиэтле / Battle in Seattle [Боевик, драма, 2007] BDRip 720р, Avo+Dvo+Sub

salma3

93 | 24

5.06 ГБ

В этой теме нет новых непрочитанных сообщений. Консьерж / For Love or Money [драма, мелодрама, комедия, 1993] BDRip 720p, Dub

salma3

14 | 6

4.71 ГБ

В этой теме нет новых непрочитанных сообщений. Зятек / Son in Law [драма, мелодрама, комедия, 1993] WEB-DL 720p, Mvo+Sub

salma3

47 | 11

3.19 ГБ

В этой теме нет новых непрочитанных сообщений. Парень с того света / My Boyfriend's Back [комедия, ужасы, фэнтези, мелодрама, 1993] BDRip 720p, Avo

salma3

18 | 9

7.46 ГБ

В этой теме нет новых непрочитанных сообщений. Дорога на Сиэтл / Seattle Road [драма, мелодрама, 2016] WEB-DLRip, Mvo

salma3

136 | 23

1.37 ГБ

В этой теме нет новых непрочитанных сообщений. Консьерж / For Love or Money [драма, мелодрама, комедия, 1993] BDRip 1080p, Dub

salma3

15 | 10

10.66 ГБ


Начать новую тему Ответить на тему  [ 1 сообщение ] 




Для Мосгорсуда, Роскомнадзора и рекламодателей:: mosgorsud-torrent[собачка]yandex.ru
cron