Торрент файл
скачать торрент магнет ссылка Добавлен: 29 дек 2017, 11:45
Размер: 6.17 ГБ
Сидеров: 16
Личеров: 15
Статус: (salma3)
Автор

СообщениеДобавлено: 29 дек 2017, 11:45 

Не в сети
Супермодератор
Аватара пользователя
Дата регистрации:
15 фев 2012, 16:44
Возраст: 29
Спасибо: 7379 / 2147
Сообщения: 76148
Год выхода: 2011
Жанр: Триллер, драма
Режиссер: Кевин Смит / Kevin Smith

В ролях: Майкл Паркс, Майкл Ангарано, Керри Бише, Николас Браун, Кайл Галлнер, Джон Гудмен, Мелисса Лео, Кевин Поллак, Стивен Рут, Мэтт Л. Джонс

О фильме:
Три подростка отвечают на интернет-предложение сексуального характера, но все их эротические фантазии заканчиваются тем, что, очнувшись после потери сознания, они оказываются в заложниках у фанатиков религиозной общины. В стремлении направить на путь истинный сотни заблудших душ местный священник считает оправданным пролить кровь парочки согрешивших, которыми являются главные герои.



Страна: США
Продолжительность: 01:28:32
Перевод: Профессиональный (дублированный), профессиональный (двухголосый закадровый)

Файл
Кодек: x264
Качество: BDRip 1080p
Видео: 1920x1036, 23.976 fps, 6565 kbps
Звук:
Russian: 48 kHz, AC3, 3/2 (L,C,R,l,r) + LFE ch, ~384 kbps |Дублированный, R5|
Russian: 48 kHz, DTS 5.1, ~1509 kbps (KvK)(Двухголосый закадровый Кубик в Кубе)
English: 48 kHz, DTS 5.1, ~1509 kbps
Субтитры: Русские, английские.


General
Unique ID : 292694113699005301862644343443812745225 (0xDC32D5F7C470BC0A631D143B03A78009)
Complete name : F:Red State (2011).BDRip_1080p.CEdition.stimco.mkv
Format : Matroska
Format version : Version 4 / Version 2
File size : 6.17 GiB
Duration : 1 h 28 min
Overall bit rate : 9 970 kb/s
Encoded date : UTC 2017-12-28 18:30:03
Writing application : mkvmerge v19.0.0 ('Brave Captain') 32-bit
Writing library : libebml v1.3.5 + libmatroska v1.4.8

Video
ID : 1
Format : AVC
Format/Info : Advanced Video Codec
Format profile : High@L4.1
Format settings : CABAC / 4 Ref Frames
Format settings, CABAC : Yes
Format settings, ReFrames : 4 frames
Codec ID : V_MPEG4/ISO/AVC
Duration : 1 h 28 min
Bit rate : 6 564 kb/s
Width : 1 920 pixels
Height : 1 036 pixels
Display aspect ratio : 1.85:1
Frame rate mode : Constant
Frame rate : 23.976 (24000/1001) FPS
Color space : YUV
Chroma subsampling : 4:2:0
Bit depth : 8 bits
Scan type : Progressive
Bits/(Pixel*Frame) : 0.138
Stream size : 4.06 GiB (66%)
Title : Red State =CEdition=
Writing library : x264 core 155 r2893 b00bcaf
Encoding settings : cabac=1 / ref=4 / deblock=1:-3:-3 / analyse=0x3:0x133 / me=umh / subme=11 / psy=1 / psy_rd=1.05:0.10 / mixed_ref=1 / me_range=40 / chroma_me=1 / trellis=2 / 8x8dct=1 / cqm=0 / deadzone=21,11 / fast_pskip=0 / chroma_qp_offset=-2 / threads=6 / lookahead_threads=1 / sliced_threads=0 / nr=0 / decimate=0 / interlaced=0 / bluray_compat=0 / constrained_intra=0 / bframes=8 / b_pyramid=2 / b_adapt=2 / b_bias=0 / direct=1 / weightb=1 / open_gop=0 / weightp=2 / keyint=240 / keyint_min=23 / scenecut=40 / intra_refresh=0 / rc_lookahead=55 / rc=crf / mbtree=1 / crf=17.0 / qcomp=0.65 / qpmin=0 / qpmax=69 / qpstep=4 / vbv_maxrate=62500 / vbv_bufsize=78125 / crf_max=0.0 / nal_hrd=none / filler=0 / ip_ratio=1.40 / aq=1:0.70
Language : English
Default : Yes
Forced : No

Audio #1
ID : 2
Format : AC-3
Format/Info : Audio Coding 3
Codec ID : A_AC3
Duration : 1 h 28 min
Bit rate mode : Constant
Bit rate : 384 kb/s
Channel(s) : 6 channels
Channel positions : Front: L C R, Side: L R, LFE
Sampling rate : 48.0 kHz
Frame rate : 31.250 FPS (1536 SPF)
Bit depth : 16 bits
Compression mode : Lossy
Stream size : 243 MiB (4%)
Title : Профессиональный (дублированный) R5
Language : Russian
Service kind : Complete Main
Default : No
Forced : No

Audio #2
ID : 3
Format : DTS
Format/Info : Digital Theater Systems
Codec ID : A_DTS
Duration : 1 h 28 min
Bit rate mode : Constant
Bit rate : 1 509 kb/s
Channel(s) : 6 channels
Channel positions : Front: L C R, Side: L R, LFE
Sampling rate : 48.0 kHz
Frame rate : 93.750 FPS (512 SPF)
Bit depth : 24 bits
Compression mode : Lossy
Stream size : 956 MiB (15%)
Title : DVO KvK
Language : Russian
Default : Yes
Forced : No

Audio #3
ID : 4
Format : DTS
Format/Info : Digital Theater Systems
Codec ID : A_DTS
Duration : 1 h 28 min
Bit rate mode : Constant
Bit rate : 1 509 kb/s
Channel(s) : 6 channels
Channel positions : Front: L C R, Side: L R, LFE
Sampling rate : 48.0 kHz
Frame rate : 93.750 FPS (512 SPF)
Bit depth : 24 bits
Compression mode : Lossy
Stream size : 956 MiB (15%)
Language : English
Default : No
Forced : No

Text #1
ID : 5
Format : UTF-8
Codec ID : S_TEXT/UTF8
Codec ID/Info : UTF-8 Plain Text
Duration : 1 h 20 min
Bit rate : 105 b/s
Count of elements : 1159
Stream size : 62.6 KiB (0%)
Title : Russian
Language : Russian
Default : No
Forced : No

Text #2
ID : 6
Format : UTF-8
Codec ID : S_TEXT/UTF8
Codec ID/Info : UTF-8 Plain Text
Duration : 1 h 20 min
Bit rate : 70 b/s
Count of elements : 1205
Stream size : 41.8 KiB (0%)
Title : English
Language : English
Default : No
Forced : No

Menu
00:00:00.000 : en:Late for School
00:03:32.295 : en:All Three of Us
00:08:39.101 : en:Devil's Business
00:15:10.409 : en:Preaching
00:20:27.643 : en:Satan on Earth
00:25:03.418 : en:The ure
00:31:15.081 : en:Following up
00:38:05.283 : en:Not in Vain
00:44:38.717 : en:Run for It
00:48:59.770 : en:Will Not Be Harmed
00:54:01.321 : en:Reclassified
00:59:40.743 : en:Help Me
01:05:50.112 : en:The Attic
01:11:28.617 : en:Day of Judgement
01:13:47.881 : en:Direct Orders
01:20:19.064 : en:My Savior


_________________
Проголосуй за трекер Открытый торрент трекер - RUS-MEDIA.ORG

Проголосуй Открытый торрент трекер - RUS-MEDIA.ORG


Вернуться к началу
 Профиль Отправить личное сообщение  
 
   Похожие торренты   Автор   Торрент   Размер 
В этой теме нет новых непрочитанных сообщений. Красный штат / Red State [Триллер, драма, 2011] BDRip 720p, Dub

salma3

17 | 12

7.93 ГБ

В этой теме нет новых непрочитанных сообщений. Красный штат / Red State [Триллер, драма, 2011] HDRip-AVC, Dub

salma3

37 | 10

743.81 МБ

В этой теме нет новых непрочитанных сообщений. Свободный штат Джонса / Free State of Jones [Боевик, драма, военный, биография, история, 2016] BDRip 1080p, Мvo

salma3

108 | 11

12 ГБ

В этой теме нет новых непрочитанных сообщений. Свободный штат Джонса / Free State of Jones ( Боевик, драма, военный, биография, история, 2016) BDRip 1080p от ExKinoRay | L1

marya111

65 | 22

13.74 ГБ

В этой теме нет новых непрочитанных сообщений. Свободный штат Джонса / Free State of Jones [Боевик, драма, военный, 2016] BDRip-AVC, Мvo [iTunes]

salma3

0 | 0

2.14 ГБ

В этой теме нет новых непрочитанных сообщений. Свободный штат Джонса / Free State of Jones ( боевик, драма, военный, биография, история, 2016) Blu-Ray 1080p | L1

marya111

48 | 32

41.5 ГБ

В этой теме нет новых непрочитанных сообщений. Свободный штат Джонса / Free State of Jones [Боевик, драма, военный, биография, история, 2016] BDRip 720p, Мvo

salma3

394 | 50

6.44 ГБ


Начать новую тему Ответить на тему  [ 1 сообщение ] 




Для Мосгорсуда, Роскомнадзора и рекламодателей:: mosgorsud-torrent[собачка]yandex.ru
cron