Торрент файл
скачать торрент магнет ссылка Добавлен: 29 дек 2017, 11:41
Размер: 4.18 ГБ
Сидеров: 7
Личеров: 10
Статус: (salma3)
Автор

СообщениеДобавлено: 29 дек 2017, 11:41 

Не в сети
Супермодератор
Аватара пользователя
Дата регистрации:
15 фев 2012, 16:44
Возраст: 29
Спасибо: 7328 / 2147
Сообщения: 73276
Год выхода: 1997
Жанр: Драма, криминал, триллер
Режиссер: Кевин Рейнолдс

В ролях: Сэмюэл Л. Джексон, Джон Хёрд, Келли Рауэн, Тони Плана, Карина Арройяве, Лобо Себастиан, Джек Келер, Джона Руни, Клифтон Коллинз мл., Энтвон Тэннер, Деметриус Наварро, Доминик Хоффман, Метод Мэн, Гай Торри, Ричард Рили, Лобо Себастьян, Джонни Богрис, Лиза Дель Мундо

О фильме:
Где обитают ублюдки? Учитель из Бруклина Тревор Гарфилд видит их каждый день в школе. Это готовые бандиты, от которых можно ждать чего угодно. Один из них из мести совершает попытку убить Гарфилда. После этого Гарфилд переезжает в Лос-Анджелес и... оказывается в таком же дерьме. Когда его терпению пришёл конец, он заставил подонков расплачиваться кровью за каждый совершённый проступок.



Страна: США
Продолжительность: 01:59:34
Перевод: Профессиональный двухголосый закадровый, авторский

Файл
Кодек: HEVC x265 10bit
Качество: UHDRip-HEVC 1080p
Видео: 1920x1036, 23.976 кадр/сек, 4426 Кбит/сек, (Main 10@L5.1@High) 10bit
Звук:
Аудио1: Русская, AC3 192 Кбит/сек, 2 канала(ов),16bit 48,0 КГц (DVO)
Аудио2: Русская, AC3 192 Кбит/сек, 2 канала(ов),16bit 48,0 КГц (А. Гаврилов)
Аудио3: English, AC3 192 Кбит/сек, 2 канала(ов),16bit 48,0 КГц
Субтитры: Русские, English
Навигация по главам: Есть

General
Unique ID : 174811051494662025982977102744136430634 (0x83836245320966138A987A7A7287B42A)
Complete name : F:HEVCOne Eight Seven (1997) UHDRip 1080p [HEVC] 10Bit.mkv
Format : Matroska
Format version : Version 4 / Version 2
File size : 4.18 GiB
Duration : 1 h 59 min
Overall bit rate : 5 002 kb/s
Movie name : rip_by_Cthulhu
Encoded date : UTC 2017-12-28 15:56:11
Writing application : mkvmerge v18.0.0 ('Apricity') 64-bit
Writing library : libebml v1.3.5 + libmatroska v1.4.8
Cover : Yes
Attachments : cover3.jpg / poster.jpg

Video
ID : 1
Format : HEVC
Format/Info : High Efficiency Video Coding
Format profile : Main 10@L5.1@High
Codec ID : V_MPEGH/ISO/HEVC
Duration : 1 h 59 min
Bit rate : 4 426 kb/s
Width : 1 920 pixels
Height : 1 036 pixels
Display aspect ratio : 1.85:1
Frame rate mode : Constant
Frame rate : 23.976 (24000/1001) FPS
Color space : YUV
Chroma subsampling : 4:2:0
Bit depth : 10 bits
Bits/(Pixel*Frame) : 0.093
Stream size : 3.70 GiB (88%)
Writing library : x265 2.6+8-fc0570b8d8f9:[Windows][GCC 7.1.0][64 bit] 10bit
Encoding settings : cpuid=1050111 / frame-threads=5 / numa-pools=4 / wpp / no-pmode / no-pme / no-psnr / no-ssim / log-level=3 / input-csp=1 / input-res=1920x1036 / interlace=0 / total-frames=0 / level-idc=51 / high-tier=1 / uhd-bd=0 / ref=5 / no-allow-non-conformance / no-repeat-headers / annexb / no-aud / no-hrd / info / hash=0 / no-temporal-layers / open-gop / min-keyint=24 / keyint=240 / gop-lookahead=0 / bframes=10 / b-adapt=2 / b-pyramid / bframe-bias=0 / rc-lookahead=40 / lookahead-slices=6 / scenecut=40 / no-intra-refresh / ctu=64 / min-cu-size=8 / no-rect / no-amp / max-tu-size=32 / tu-inter-depth=3 / tu-intra-depth=3 / limit-tu=0 / rdoq-level=0 / dynamic-rd=0.00 / no-ssim-rd / signhide / no-tskip / nr-intra=0 / nr-inter=0 / no-constrained-intra / no-strong-intra-smoothing / max-merge=3 / limit-refs=3 / no-limit-modes / me=2 / subme=7 / merange=57 / temporal-mvp / weightp / weightb / no-analyze-src-pics / deblock=-3:-3 / no-sao / no-sao-non-deblock / rd=3 / no-early-skip / rskip / no-fast-intra / no-tskip-fast / no-cu-lossless / no-b-intra / no-splitrd-skip / rdpenalty=0 / psy-rd=2.00 / psy-rdoq=0.00 / no-rd-refine / analysis-reuse-mode=0 / no-lossless / cbqpoffs=0 / crqpoffs=0 / rc=crf / crf=19.0 / qcomp=0.60 / qpstep=4 / stats-write=0 / stats-read=0 / vbv-maxrate=50000 / vbv-bufsize=50000 / vbv-init=0.9 / crf-max=30.0 / crf-min=0.0 / ipratio=1.40 / pbratio=1.30 / aq-mode=1 / aq-strength=1.00 / cutree / zone-count=0 / no-strict-cbr / qg-size=32 / no-rc-grain / qpmax=69 / qpmin=0 / no-const-vbv / sar=1 / overscan=0 / videoformat=5 / range=0 / colorprim=1 / transfer=1 / colormatrix=1 / chromaloc=0 / display-window=0 / max-cll=0,0 / min-luma=0 / max-luma=1023 / log2-max-poc-lsb=8 / vui-timing-info / vui-hrd-info / slices=1 / no-opt-qp-pps / no-opt-ref-list-length-pps / no-multi-pass-opt-rps / scenecut-bias=0.05 / no-opt-cu-delta-qp / no-aq-motion / no-hdr / no-hdr-opt / no-dhdr10-opt / analysis-reuse-level=5 / scale-factor=0 / refine-intra=0 / refine-inter=0 / refine-mv=0 / no-limit-sao / ctu-info=0 / no-lowpass-dct / refine-mv-type=0 / copy-pic=1
Language : English
Default : Yes
Forced : No
Color range : Limited
Color primaries : BT.709
Transfer characteristics : BT.709
Matrix coefficients : BT.709

Audio #1
ID : 2
Format : AC-3
Format/Info : Audio Coding 3
Format settings, Endianness : Big
Codec ID : A_AC3
Duration : 1 h 59 min
Bit rate mode : Constant
Bit rate : 192 kb/s
Channel(s) : 2 channels
Channel positions : Front: L R
Sampling rate : 48.0 kHz
Frame rate : 31.250 FPS (1536 SPF)
Bit depth : 16 bits
Compression mode : Lossy
Delay relative to video : 1 s 500 ms
Stream size : 163 MiB (4%)
Title : DVO
Language : Russian
Service kind : Complete Main
Default : Yes
Forced : No

Audio #2
ID : 3
Format : AC-3
Format/Info : Audio Coding 3
Format settings, Endianness : Big
Codec ID : A_AC3
Duration : 1 h 59 min
Bit rate mode : Constant
Bit rate : 192 kb/s
Channel(s) : 2 channels
Channel positions : Front: L R
Sampling rate : 48.0 kHz
Frame rate : 31.250 FPS (1536 SPF)
Bit depth : 16 bits
Compression mode : Lossy
Delay relative to video : 1 s 500 ms
Stream size : 163 MiB (4%)
Title : Gavrilov
Language : Russian
Service kind : Complete Main
Default : No
Forced : No

Audio #3
ID : 4
Format : AC-3
Format/Info : Audio Coding 3
Format settings, Endianness : Big
Codec ID : A_AC3
Duration : 1 h 59 min
Bit rate mode : Constant
Bit rate : 192 kb/s
Channel(s) : 2 channels
Channel positions : Front: L R
Sampling rate : 48.0 kHz
Frame rate : 31.250 FPS (1536 SPF)
Bit depth : 16 bits
Compression mode : Lossy
Delay relative to video : 1 s 500 ms
Stream size : 163 MiB (4%)
Language : English
Service kind : Complete Main
Default : No
Forced : No

Text #1
ID : 5
Format : UTF-8
Codec ID : S_TEXT/UTF8
Codec ID/Info : UTF-8 Plain Text
Duration : 1 h 53 min
Bit rate : 74 b/s
Count of elements : 912
Stream size : 61.6 KiB (0%)
Language : Russian
Default : Yes
Forced : No

Text #2
ID : 6
Format : UTF-8
Codec ID : S_TEXT/UTF8
Codec ID/Info : UTF-8 Plain Text
Duration : 1 h 50 min
Bit rate : 48 b/s
Count of elements : 1278
Stream size : 39.3 KiB (0%)
Language : English
Default : No
Forced : No

Menu
00:00:00.000 : :Глава 1
00:09:26.816 : :Глава 2
00:23:24.277 : :Глава 3
00:29:41.863 : :Глава 4
00:39:22.068 : :Глава 5
00:55:20.150 : :Глава 6
01:10:48.285 : :Глава 7
01:22:41.623 : :Глава 8
01:32:32.088 : :Глава 9
01:40:31.150 : :Глава 10
01:50:21.573 : :Глава 11
01:59:34.584 : :Глава 12


Релиз от: Cthulhu


_________________
Проголосуй за трекер Открытый торрент трекер - RUS-MEDIA.ORG

Проголосуй Открытый торрент трекер - RUS-MEDIA.ORG


Вернуться к началу
 Профиль Отправить личное сообщение  
 
   Похожие торренты   Автор   Торрент   Размер 
В этой теме нет новых непрочитанных сообщений. Поезд на Юму / 3:10 to Yuma [драма, криминал, приключения, вестерн, 2007] UHDRip-HEVC 1080p, Dub

salma3

0 | 0

7.4 ГБ

В этой теме нет новых непрочитанных сообщений. Бегущий по лезвию / Blade Runner [фантастика, киберпанк, драма, 1982] UHDRip-HEVC 1080p, Dub [Final Cut]

salma3

0 | 0

7.58 ГБ

В этой теме нет новых непрочитанных сообщений. Секретные материалы. The X-Files [S05] [Фантастика, триллер, драма, 1997] BDRip-HEVC 1080p, Dub [ТВ3]

salma3

0 | 0

20.14 ГБ

В этой теме нет новых непрочитанных сообщений. Доберман / Dobermann [боевик, криминал, 1997] BDRip-HEVC 1080p, Avo

salma3

0 | 0

4.04 ГБ

В этой теме нет новых непрочитанных сообщений. Звездный десант / Starship Troopers [фантастика, боевик, триллер, 1997] BDRip-HEVC 1080p, Dub

salma3

11 | 1

8.65 ГБ

В этой теме нет новых непрочитанных сообщений. Отступники / The Departed [триллер, драма, криминал, 2006] BDRip-HEVC 1080p, Dub

salma3

0 | 0

8.74 ГБ

В этой теме нет новых непрочитанных сообщений. Неприкасаемые / The Untouchables [триллер, драма, криминал, 1987] BDRip-HEVC 1080p, Mvo

salma3

18 | 22

7.38 ГБ


Начать новую тему Ответить на тему  [ 1 сообщение ] 




Для Мосгорсуда, Роскомнадзора и рекламодателей:: mosgorsud-torrent[собачка]yandex.ru
cron