Торрент файл
скачать торрент магнет ссылка Добавлен: 28 дек 2017, 13:30
Размер: 9.9 ГБ
Сидеров: 35
Личеров: 24
Статус: (salma3)
Автор

СообщениеДобавлено: 28 дек 2017, 13:30 

В сети
Супермодератор
Аватара пользователя
Дата регистрации:
15 фев 2012, 16:44
Возраст: 28
Спасибо: 7223 / 2147
Сообщения: 67643
Год выпуска: 2000
Жанр: боевик, триллер, комедия, криминал
Режиссер: МакДжи

В ролях: Кэмерон Диаз, Дрю Бэрримор, Люси Лью, Билл Мюррэй, Сэм Рокуэлл, Келли Линч, Тим Карри, Криспин Гловер, Мэтт ЛеБлан


О фильме:
Ангелы Чарли - суперсекретное элитное спецподразделение, которому доверяют только невыполнимые задания. С помощью новейших технологий, современного оружия, боевых искусств и убийственного женского очарования Ангелы Чарли творят чудеса. Но настоящим испытанием станет лишь это последнее задание...



Страна: США, Германия
Продолжительность: 01:38:26
Перевод: Профессиональный (дублированный), Профессиональный (многоголосый, закадровый), Авторский (одноголосый, закадровый)

Файл
Качество: WEB-DL 1080p | Open Matte
Формат: Matroska
Видео: 1920x1080 at 23.976 fps, MPEG-4 AVC, ~11200 kbps avg
Аудио#1: Russian: 48 kHz, AC3, 3/2 (L,C,R,l,r) + LFE ch, ~640 kbps avg |Дубляж, Blu-ray CEE|
Аудио#2: Russian: 48 kHz, AC3, 3/2 (L,C,R,l,r) + LFE ch, ~448 kbps avg |Многоголосый закадровый, R5|
Аудио#3: Russian: 48 kHz, AC3, 3/2 (L,C,R,l,r) + LFE ch, ~640 kbps avg |Авторский, С.Визгунов|
Аудио#4: Russian: 48 kHz, DTS, 3/2 (L,C,R,l,r) + LFE ch, ~755 kbps avg |Авторский, Л.Володарский|
Аудио#5: English: 48 kHz, DTS, 3/2 (L,C,R,l,r) + LFE ch, ~755 kbps avg
Субтитры: Russian (R5, Superbit), English (SDH)

***Сохранены оригинальные главы.
***Исходник видео - 3.Engel.fuer.Charlie.2000.OPEN.MATTE.German.DTSD.DL.1080p.WEB-DL.h264-LameHD.
***Релиз - ylnian.
Бэрримор, один из продюсеров, не очень любит огнестрельное оружие, поэтому Ангелы представлены в фильме экспертами боевых искусств. Кэмерон Диаз, Дрю Бэрримор и Люси Лью прошли напряжённый курс подготовки к своей роли под руководством известного хореографа из Гонконга Юань Хэпин.
Множество кандидатов было рассмотрено на роль Алекс, в том числе Бейонсе, Лорин Хилл и Виктория Бекхэм. Роль получила Тэнди Ньютон, однако впоследствии отказалась от неё. В итоге Алекс сыграла Люси Лью.
[*]Как заявила исландская певица Бьорк, её приглашали на роль злодея, но она предложение отклонила.
Общее
Уникальный идентификатор : 241565732693243015183261548225743433250 (0xB5BBDE290119B3779E139D1F4DEE2E22)
Полное имя : Charlie's.Angels.OPEN.MATTE.2000.WEB-DL.1080p-ylnian.mkv
Формат : Matroska
Версия формата : Version 4 / Version 2
Размер файла : 9,90 Гбайт
Продолжительность : 1 ч. 38 м.
Режим общего битрейта : Переменный
Общий поток : 14,4 Мбит/сек
Название фильма : Charlie's.Angels.OPEN.MATTE.2000.WEB-DL.1080p-ylnian
Дата кодирования : UTC 2017-12-26 07:24:39
Программа кодирования : mkvmerge v19.0.0 ('Brave Captain') 64-bit
Библиотека кодирования : libebml v1.3.5 + libmatroska v1.4.8

Видео
Идентификатор : 1
Формат : AVC
Формат/Информация : Advanced Video Codec
Профиль формата : High@L4.0
Параметр CABAC формата : Да
Параметр ReFrames формата : 4 кадра
Идентификатор кодека : V_MPEG4/ISO/AVC
Продолжительность : 1 ч. 38 м.
Вид битрейта : Переменный
Битрейт : 10,9 Мбит/сек
Максимальный битрейт : 15,0 Мбит/сек
Ширина : 1920 пикселей
Высота : 1080 пикселей
Соотношение сторон : 16:9
Режим частоты кадров : Постоянный
Частота кадров : 23,976 кадра/сек
Цветовое пространство : YUV
Субдискретизация насыщенности : 4:2:0
Битовая глубина : 8 бит
Тип развёртки : Прогрессивная
Бит/(Пиксели*Кадры) : 0.219
Размер потока : 7,48 Гбайт (76%)
Заголовок : 3.Engel.fuer.Charlie.2000.OPEN.MATTE.German.DTSD.DL.1080p.WEB-DL.h264-LameHD
Язык : English
Default : Да
Forced : Да
Основные цвета : BT.709
Характеристики трансфера : BT.709
Коэффициенты матрицы : BT.709

Аудио #1
Идентификатор : 2
Формат : AC-3
Формат/Информация : Audio Coding 3
Расширение режима : CM (complete main)
Параметр Endianness формата : Big
Идентификатор кодека : A_AC3
Продолжительность : 1 ч. 38 м.
Вид битрейта : Постоянный
Битрейт : 640 Кбит/сек
Каналы : 6 каналов
Расположение каналов : Front: L C R, Side: L R, LFE
Частота : 48,0 КГц
Битовая глубина : 16 бит
Метод сжатия : С потерями
Размер потока : 451 Мбайт (4%)
Заголовок : DUB (Blu-ray CEE)
Язык : Russian
Default : Да
Forced : Нет

Аудио #2
Идентификатор : 3
Формат : AC-3
Формат/Информация : Audio Coding 3
Расширение режима : CM (complete main)
Параметр Endianness формата : Big
Идентификатор кодека : A_AC3
Продолжительность : 1 ч. 38 м.
Вид битрейта : Постоянный
Битрейт : 448 Кбит/сек
Каналы : 6 каналов
Расположение каналов : Front: L C R, Side: L R, LFE
Частота : 48,0 КГц
Битовая глубина : 16 бит
Метод сжатия : С потерями
Размер потока : 315 Мбайт (3%)
Заголовок : MVO (R5)
Язык : Russian
Default : Нет
Forced : Нет

Аудио #3
Идентификатор : 4
Формат : AC-3
Формат/Информация : Audio Coding 3
Расширение режима : CM (complete main)
Параметр Endianness формата : Big
Идентификатор кодека : A_AC3
Продолжительность : 1 ч. 38 м.
Вид битрейта : Постоянный
Битрейт : 640 Кбит/сек
Каналы : 6 каналов
Расположение каналов : Front: L C R, Side: L R, LFE
Частота : 48,0 КГц
Битовая глубина : 16 бит
Метод сжатия : С потерями
Размер потока : 451 Мбайт (4%)
Заголовок : AVO (С.Визгунов)
Язык : Russian
Default : Нет
Forced : Нет

Аудио #4
Идентификатор : 5
Формат : DTS
Формат/Информация : Digital Theater Systems
Режим : 16
Параметр Endianness формата : Big
Идентификатор кодека : A_DTS
Продолжительность : 1 ч. 38 м.
Вид битрейта : Постоянный
Битрейт : 755 Кбит/сек
Каналы : 6 каналов
Расположение каналов : Front: L C R, Side: L R, LFE
Частота : 48,0 КГц
Битовая глубина : 24 бит
Метод сжатия : С потерями
Размер потока : 531 Мбайт (5%)
Заголовок : AVO (Л.Володарский)
Язык : Russian
Default : Нет
Forced : Нет

Аудио #5
Идентификатор : 6
Формат : DTS
Формат/Информация : Digital Theater Systems
Режим : 16
Параметр Endianness формата : Big
Идентификатор кодека : A_DTS
Продолжительность : 1 ч. 38 м.
Вид битрейта : Постоянный
Битрейт : 755 Кбит/сек
Каналы : 6 каналов
Расположение каналов : Front: L C R, Side: L R, LFE
Частота : 48,0 КГц
Битовая глубина : 24 бит
Метод сжатия : С потерями
Размер потока : 531 Мбайт (5%)
Заголовок : Original
Язык : English
Default : Нет
Forced : Нет

Текст #1
Идентификатор : 7
Формат : UTF-8
Идентификатор кодека : S_TEXT/UTF8
Идентификатор кодека/Информация : UTF-8 Plain Text
Заголовок : [полный] R5
Язык : Russian
Default : Нет
Forced : Нет

Текст #2
Идентификатор : 8
Формат : UTF-8
Идентификатор кодека : S_TEXT/UTF8
Идентификатор кодека/Информация : UTF-8 Plain Text
Заголовок : [полный] Superbit
Язык : Russian
Default : Нет
Forced : Нет

Текст #3
Идентификатор : 9
Формат : UTF-8
Идентификатор кодека : S_TEXT/UTF8
Идентификатор кодека/Информация : UTF-8 Plain Text
Заголовок : [полный]
Язык : English
Default : Нет
Forced : Нет

Текст #4
Идентификатор : 10
Формат : UTF-8
Идентификатор кодека : S_TEXT/UTF8
Идентификатор кодека/Информация : UTF-8 Plain Text
Заголовок : [SDH]
Язык : English
Default : Нет
Forced : Нет

Меню
00:00:00.000 : en:Chapter 01
00:05:23.448 : en:Chapter 02
00:11:30.606 : en:Chapter 03
00:18:14.092 : en:Chapter 04
00:23:14.601 : en:Chapter 05
00:28:45.473 : en:Chapter 06
00:35:33.548 : en:Chapter 07
00:39:43.672 : en:Chapter 08
00:48:38.749 : en:Chapter 09
00:52:18.677 : en:Chapter 10
00:59:11.464 : en:Chapter 11
01:03:02.737 : en:Chapter 12
01:10:10.164 : en:Chapter 13
01:15:42.079 : en:Chapter 14
01:20:49.386 : en:Chapter 15
01:23:20.078 : en:Chapter 16



_________________
Проголосуй за трекер Открытый торрент трекер - RUS-MEDIA.ORG

Проголосуй Открытый торрент трекер - RUS-MEDIA.ORG


Вернуться к началу
 Профиль Отправить личное сообщение  
 
   Похожие торренты   Автор   Торрент   Размер 
В этой теме нет новых непрочитанных сообщений. Ангелы Чарли / Charlie's Angels [боевик, триллер, комедия, 2000] WEB-DLRip-AVC, Dub [Open Matte]

salma3

7 | 2

2.18 ГБ

В этой теме нет новых непрочитанных сообщений. Ангелы Чарли / Charlie's Angels [боевик, триллер, комедия, 2000] WEB-DLRip, Dub [Open Matte]

salma3

14 | 12

1.45 ГБ

В этой теме нет новых непрочитанных сообщений. Ангелы Чарли 2: Только вперед / Charlie's Angels: Full Throttle [боевик, комедия, криминал, 2003] HDTV 1080i, Dub [Open Matte]

salma3

0 | 1

3.91 ГБ

В этой теме нет новых непрочитанных сообщений. Ангелы Чарли / Charlie's Angels [Боевик, триллер, комедия, 2000] BDRemux 1080p, Dub

salma3

0 | 1

24.03 ГБ

В этой теме нет новых непрочитанных сообщений. Ангелы Чарли / Charlie's Angels [боевик, комедия, приключения, 2000] HDRip-AVC, Dub

salma3

92 | 46

745.65 МБ

В этой теме нет новых непрочитанных сообщений. Ангелы Чарли 2: Только вперед / Charlie's Angels: Full Throttle [боевик, комедия, криминал, 2003] BDRip-AVC, Dub

salma3

18 | 6

2.18 ГБ

В этой теме нет новых непрочитанных сообщений. Ангелы Чарли 2: Только вперед / Charlie's Angels: Full Throttle [боевик, комедия, криминал, 2003] HDRip-AVC, Dub

salma3

103 | 44

745.51 МБ


Начать новую тему Ответить на тему  [ 1 сообщение ] 




Для Мосгорсуда, Роскомнадзора и рекламодателей:: mosgorsud-torrent[собачка]yandex.ru
cron