Торрент файл
скачать торрент магнет ссылка Добавлен: 26 дек 2017, 21:36
Размер: 15.06 ГБ
Сидеров: 7
Личеров: 2
Статус: (salma3)
Автор

СообщениеДобавлено: 26 дек 2017, 21:36 

Не в сети
Супермодератор
Аватара пользователя
Дата регистрации:
15 фев 2012, 16:44
Возраст: 29
Спасибо: 7379 / 2147
Сообщения: 76148
Год выхода: 2009
Жанр: ужасы
Режиссер: Джоэл Шумахер

В ролях: Доминик Перседл, Генри Кавилл, Майкл Фассбендер, Эмма Бут, Рэйнер Винкелвос, Энтони Бэргер, Мэттью Райан Бенсон, Альберт Герасим, Лазло Метрай, Джой МакБрин

Описание: В 30-е годы ХХ века в ближайшем окружении Гитлера было создано общество, целью которого было изучение оккультных наук. Разосланные Гитлером агенты обшаривали каждую пядь земли в поисках древних артефактов, которые могли указать путь к величайшей загадке — бессмертию. Одними из таких артефактов были так называемые Рунные Камни… Они были найдены… Но не смогут ли отголоски тех событий вылиться в катастрофу в наши дни?



Страна: США
Продолжительность: 01:30:11
Перевод: Любительский (одноголосый закадровый) zamez

Файл
Качество: BDRemux 1080р
Видео: MPEG-4 AVC Video 22999 kbps 1080p / 24 fps / 16:9 / High Profile 4.1
Аудио 1: Dolby Digital Audio Russian 5.1 / 48 kHz / 448 kbps
Аудио 2: Dolby Digital Audio English 5.1 / 48 kHz / 448 kbps

General
Complete name : Кровавый ручей (2009. Blood Creek).mkv
Format : Matroska
File size : 15.1 GiB
Duration : 1h 30mn
Overall bit rate : 23.9 Mbps
Encoded date : UTC 2012-02-10 20:12:40
Writing application : mkvmerge v4.9.1 ('Ich will') сборка от Jul 11 2011 23:53:15
Writing library : libebml v1.2.1 + libmatroska v1.1.1

Video
ID : 1
Format : AVC
Format/Info : Advanced Video Codec
Format profile : High@L4.1
Format settings, CABAC : Yes
Format settings, ReFrames : 4 frames
Muxing mode : Container profile=Unknown@4.1
Codec ID : V_MPEG4/ISO/AVC
Duration : 1h 30mn
Bit rate mode : Variable
Bit rate : 22.5 Mbps
Maximum bit rate : 32.0 Mbps
Width : 1 920 pixels
Height : 1 080 pixels
Display aspect ratio : 16:9
Frame rate : 24.000 fps
Standard : NTSC
Color space : YUV
Chroma subsampling : 4:2:0
Bit depth : 8 bits
Scan type : Progressive
Bits/(Pixel*Frame) : 0.452
Stream size : 14.2 GiB (94%)
Title : Blood.Creek.2009.1080p.Blu-Ray.AVC.DD.5.1-HDChina
Language : English
Color primaries : BT.709-5, BT.1361, IEC 61966-2-4, SMPTE RP177
Transfer characteristics : BT.709-5, BT.1361
Matrix coefficients : BT.709-5, BT.1361, IEC 61966-2-4 709, SMPTE RP177

Audio #1
ID : 2
Format : AC-3
Format/Info : Audio Coding 3
Mode extension : CM (complete main)
Codec ID : A_AC3
Duration : 1h 30mn
Bit rate mode : Constant
Bit rate : 448 Kbps
Channel(s) : 6 channels
Channel positions : Front: L C R, Side: L R, LFE
Sampling rate : 48.0 KHz
Bit depth : 16 bits
Stream size : 289 MiB (2%)
Title : VO [zamez]
Language : Russian

Audio #2
ID : 3
Format : AC-3
Format/Info : Audio Coding 3
Mode extension : CM (complete main)
Codec ID : A_AC3
Duration : 1h 30mn
Bit rate mode : Constant
Bit rate : 448 Kbps
Channel(s) : 6 channels
Channel positions : Front: L C R, Side: L R, LFE
Sampling rate : 48.0 KHz
Bit depth : 16 bits
Stream size : 289 MiB (2%)
Language : English

Menu
00:00:00.000 : en:00:00:00.000
00:10:30.375 : en:00:10:30.375
00:20:05.667 : en:00:20:05.667
00:34:26.875 : en:00:34:26.875
00:42:10.000 : en:00:42:10.000
00:52:21.458 : en:00:52:21.458
01:02:14.750 : en:01:02:14.750
01:08:33.667 : en:01:08:33.667
01:13:46.167 : en:01:13:46.167
01:19:41.167 : en:01:19:41.167
01:21:53.917 : en:01:21:53.917
01:24:01.458 : en:01:24:01.458


_________________
Проголосуй за трекер Открытый торрент трекер - RUS-MEDIA.ORG

Проголосуй Открытый торрент трекер - RUS-MEDIA.ORG


Вернуться к началу
 Профиль Отправить личное сообщение  
 
   Похожие торренты   Автор   Торрент   Размер 
В этой теме нет новых непрочитанных сообщений. Кровавый ручей / Blood Creek [Ужасы, мистика, триллер, 2009] BDRip 720p, Avo

salma3

17 | 69

4.37 ГБ

В этой теме нет новых непрочитанных сообщений. Кровавый ледник / Blutgletscher / Schlaraffenhaus / Blood Glacier / The Station [ужасы, 2013] BDRemux 1080р, Avo

salma3

5 | 0

19.69 ГБ

В этой теме нет новых непрочитанных сообщений. Кровная ярость / Blood Rage [ужасы, 1987] BDRemux 1080р, Avo

salma3

1 | 1

18.23 ГБ

В этой теме нет новых непрочитанных сообщений. Кровавое месилово / Blood Beat [ужасы, 1983] BDRemux 1080р, Avo

salma3

0 | 0

21.31 ГБ

В этой теме нет новых непрочитанных сообщений. Дом, где падает кровь / The Dorm That Dripped Blood [ужасы, 1982] BDRemux 1080р, Avo

salma3

0 | 0

19.29 ГБ

В этой теме нет новых непрочитанных сообщений. Кровь невинных / Innocent Blood [ужасы, боевик, мелодрама, 1991] BDRemux 1080р, Mvo

salma3

5 | 5

30.18 ГБ

В этой теме нет новых непрочитанных сообщений. Анаконда 4: Кровавый след / Anacondas 4: Trail of Blood [ужасы, фантастика, боевик, 2009] DVDRip-AVC, Dvo

salma3

109 | 42

2.75 ГБ


Начать новую тему Ответить на тему  [ 1 сообщение ] 




Для Мосгорсуда, Роскомнадзора и рекламодателей:: mosgorsud-torrent[собачка]yandex.ru
cron