Торрент файл
скачать торрент магнет ссылка Добавлен: 26 дек 2017, 14:28
Размер: 7.46 ГБ
Сидеров: 14
Личеров: 3
Статус: (salma3)
Автор

СообщениеДобавлено: 26 дек 2017, 14:28 

Не в сети
Супермодератор
Аватара пользователя
Дата регистрации:
15 фев 2012, 16:44
Возраст: 28
Спасибо: 7205 / 2147
Сообщения: 65433
Год выхода: 1986
Жанр: фантастика, боевик, триллер
Выпущено: США, New World Pictures, Sequoia Productions
Продолжительность: 01:39:30
Перевод: Профессиональный многоголосый, профессиональный двухголосый, авторский одноголосый, любительский одноголосый
Режиссер: Харли Коклисс / Harley Cokeliss
В ролях: Томми Ли Джонс, Линда Хэмилтон, Роберт Вон, Ричард Джекил, Ли Винг, Бубба Смит, Дан Шор, Уильям Сэндерсон, Кинэн Уинн, Ник Кассаветес, Ричард Ангарола, Дон Кит Оппер, Уильям Маркес, Стэнли ДеСантис, Аль Уайт, Билл Муди, Таунсенд Коулмэн, Далтон Кэти, Фрэнк Дент, Карл Киарфалио

О фильме
История, которая начинается с угона сверхмощного автомобиля с реактивным двигателем — «Черная луна», становится еще более запутанной, когда к разборкам между «специалистами» по незаконной транспортировке, гангстерами и агентами правительственных спецслужб подключается расследование, проводимое ФБР.



Файл
Качество: BDRip 720p
Видео: MPEG-4 AVC, 1280x720 (16:9), 8144 kbps, 24.000 fps, 0.368 bpp
Аудио 1: Russian: 48 kHz, AC3, 5.1 ch, 448 kbps |DVO, Амальгама|
Аудио 2: Russian: 48 kHz, AC3, 2.0 ch, 192 kbps |MVO, ТК Россия|
Аудио 3: Russian: 48 kHz, AC3, 2.0 ch, 192 kbps |MVO, Нева-1|
Аудио 4: Russian: 48 kHz, AC3, 5.1 ch, 448 kbps |AVO, С. Визгунов|
Аудио 5: Russian: 48 kHz, AC3, 5.1 ch, 448 kbps |VO, Е. Гаевский|
Аудио 6: Ukrainian: 48 kHz, AC3, 2.0 ch, 192 kbps |DVO, ТК 2+2|
Аудио 7: English: 48 kHz, AC3, 5.1 ch, 448 kbps |Оригинал|
Субтитры: Русские, английские
Навигация по главам: есть


Общее
Уникальный идентификатор : 243146788916646276851683229656579602776 (0xB6EC5E401A15300699C838CD905C7958)
Полное имя : Black.Moon.Rising.1986.BDRip.720p.mkv
Формат : Matroska
Версия формата : Version 2
Размер файла : 7,46 Гбайт
Продолжительность : 1 ч. 39 м.
Общий поток : 10,7 Мбит/сек
Название фильма : Восход «Черной луны» (1986)
Дата кодирования : UTC 2017-12-25 17:38:05
Программа кодирования : mkvmerge v5.8.0 ('No Sleep / Pillow') built on Sep 2 2012 15:37:04
Библиотека кодирования : libebml v1.2.3 + libmatroska v1.3.0
Обложка : Yes
Attachments : Cover.jpg

Видео
Идентификатор : 1
Формат : AVC
Формат/Информация : Advanced Video Codec
Профиль формата : High@L4.1
Параметр CABAC формата : Да
Параметр RefFrames формата : 8 кадров
Идентификатор кодека : V_MPEG4/ISO/AVC
Продолжительность : 1 ч. 39 м.
Битрейт : 8144 Кбит/сек
Ширина : 1280 пикселей
Высота : 720 пикселей
Соотношение сторон : 16:9
Режим частоты кадров : Постоянный
Частота кадров : 24,000 кадра/сек
Цветовое пространство : YUV
Субдискретизация насыщенности : 4:2:0
Битовая глубина : 8 бит
Тип развёртки : Прогрессивная
Бит/(Пиксели*Кадры) : 0.368
Размер потока : 5,66 Гбайт (76%)
Заголовок : Восход «Черной луны» (1986)
Библиотека кодирования : x264 core 148 r2597kMod e86f3a1
Настройки программы : cabac=1 / ref=8 / deblock=1:-3:-3 / analyse=0x3:0x113 / me=umh / subme=11 / psy=1 / fade_compensate=0.00 / psy_rd=0.95:0.05 / mixed_ref=1 / me_range=48 / chroma_me=1 / trellis=2 / 8x8dct=1 / cqm=0 / deadzone=21,11 / fast_pskip=0 / chroma_qp_offset=-3 / threads=12 / lookahead_threads=3 / sliced_threads=0 / nr=0 / decimate=1 / interlaced=0 / bluray_compat=0 / constrained_intra=0 / fgo=0 / bframes=16 / b_pyramid=2 / b_adapt=2 / b_bias=0 / direct=3 / weightb=1 / open_gop=0 / weightp=2 / keyint=250 / keyint_min=24 / scenecut=40 / intra_refresh=0 / rc_lookahead=60 / rc=crf / mbtree=0 / crf=18.5000 / qcomp=0.70 / qpmin=0 / qpmax=69 / qpstep=4 / vbv_maxrate=62500 / vbv_bufsize=78125 / crf_max=0.0 / nal_hrd=none / filler=0 / ip_ratio=1.40 / pb_ratio=1.30 / aq=3:0.95
Язык : English
Default : Да
Forced : Нет
Цветовой диапазон : Limited
Основные цвета : BT.709
Характеристики трансфера : BT.709
Коэффициенты матрицы : BT.709

Аудио #1
Идентификатор : 2
Формат : AC-3
Формат/Информация : Audio Coding 3
Параметр Endianness формата : Big
Идентификатор кодека : A_AC3
Продолжительность : 1 ч. 39 м.
Вид битрейта : Постоянный
Битрейт : 448 Кбит/сек
Каналы : 6 каналов
Расположение каналов : Front: L C R, Side: L R, LFE
Частота : 48,0 КГц
Частота кадров : 31,250 кадров/сек (1536 SPF)
Битовая глубина : 16 бит
Метод сжатия : С потерями
Размер потока : 319 Мбайт (4%)
Заголовок : DVO, Амальгама
Язык : Russian
Default : Да
Forced : Нет

Аудио #2
Идентификатор : 3
Формат : AC-3
Формат/Информация : Audio Coding 3
Параметр Endianness формата : Big
Идентификатор кодека : A_AC3
Продолжительность : 1 ч. 39 м.
Вид битрейта : Постоянный
Битрейт : 192 Кбит/сек
Каналы : 2 канала
Расположение каналов : Front: L R
Частота : 48,0 КГц
Частота кадров : 31,250 кадров/сек (1536 SPF)
Битовая глубина : 16 бит
Метод сжатия : С потерями
Размер потока : 137 Мбайт (2%)
Заголовок : MVO, ТК Россия
Язык : Russian
Default : Нет
Forced : Нет

Аудио #3
Идентификатор : 4
Формат : AC-3
Формат/Информация : Audio Coding 3
Параметр Endianness формата : Big
Идентификатор кодека : A_AC3
Продолжительность : 1 ч. 39 м.
Вид битрейта : Постоянный
Битрейт : 192 Кбит/сек
Каналы : 2 канала
Расположение каналов : Front: L R
Частота : 48,0 КГц
Частота кадров : 31,250 кадров/сек (1536 SPF)
Битовая глубина : 16 бит
Метод сжатия : С потерями
Размер потока : 137 Мбайт (2%)
Заголовок : MVO, Нева-1
Язык : Russian
Default : Нет
Forced : Нет

Аудио #4
Идентификатор : 5
Формат : AC-3
Формат/Информация : Audio Coding 3
Параметр Endianness формата : Big
Идентификатор кодека : A_AC3
Продолжительность : 1 ч. 39 м.
Вид битрейта : Постоянный
Битрейт : 448 Кбит/сек
Каналы : 6 каналов
Расположение каналов : Front: L C R, Side: L R, LFE
Частота : 48,0 КГц
Частота кадров : 31,250 кадров/сек (1536 SPF)
Битовая глубина : 16 бит
Метод сжатия : С потерями
Размер потока : 319 Мбайт (4%)
Заголовок : AVO, С. Визгунов
Язык : Russian
Default : Нет
Forced : Нет

Аудио #5
Идентификатор : 6
Формат : AC-3
Формат/Информация : Audio Coding 3
Параметр Endianness формата : Big
Идентификатор кодека : A_AC3
Продолжительность : 1 ч. 39 м.
Вид битрейта : Постоянный
Битрейт : 448 Кбит/сек
Каналы : 6 каналов
Расположение каналов : Front: L C R, Side: L R, LFE
Частота : 48,0 КГц
Частота кадров : 31,250 кадров/сек (1536 SPF)
Битовая глубина : 16 бит
Метод сжатия : С потерями
Размер потока : 319 Мбайт (4%)
Заголовок : VO, Е. Гаевский
Язык : Russian
Default : Нет
Forced : Нет

Аудио #6
Идентификатор : 7
Формат : AC-3
Формат/Информация : Audio Coding 3
Параметр Endianness формата : Big
Идентификатор кодека : A_AC3
Продолжительность : 1 ч. 39 м.
Вид битрейта : Постоянный
Битрейт : 192 Кбит/сек
Каналы : 2 канала
Расположение каналов : Front: L R
Частота : 48,0 КГц
Частота кадров : 31,250 кадров/сек (1536 SPF)
Битовая глубина : 16 бит
Метод сжатия : С потерями
Размер потока : 137 Мбайт (2%)
Заголовок : DVO, ТК 2+2
Язык : Ukrainian
Default : Нет
Forced : Нет

Аудио #7
Идентификатор : 8
Формат : AC-3
Формат/Информация : Audio Coding 3
Параметр Endianness формата : Big
Идентификатор кодека : A_AC3
Продолжительность : 1 ч. 39 м.
Вид битрейта : Постоянный
Битрейт : 448 Кбит/сек
Каналы : 6 каналов
Расположение каналов : Front: L C R, Side: L R, LFE
Частота : 48,0 КГц
Частота кадров : 31,250 кадров/сек (1536 SPF)
Битовая глубина : 16 бит
Метод сжатия : С потерями
Размер потока : 319 Мбайт (4%)
Заголовок : Оригинал
Язык : English
Default : Нет
Forced : Нет

Текст #1
Идентификатор : 9
Формат : UTF-8
Идентификатор кодека : S_TEXT/UTF8
Идентификатор кодека/Информация : UTF-8 Plain Text
Заголовок : full
Язык : Russian
Default : Нет
Forced : Нет

Текст #2
Идентификатор : 10
Формат : UTF-8
Идентификатор кодека : S_TEXT/UTF8
Идентификатор кодека/Информация : UTF-8 Plain Text
Заголовок : full
Язык : English
Default : Нет
Forced : Нет

Текст #3
Идентификатор : 11
Формат : UTF-8
Идентификатор кодека : S_TEXT/UTF8
Идентификатор кодека/Информация : UTF-8 Plain Text
Заголовок : full SDH
Язык : English
Default : Нет
Forced : Нет

Меню
00:00:00.000 : :Chapter 01
00:15:00.750 : :Chapter 02
00:29:21.083 : :Chapter 03
00:45:12.666 : :Chapter 04
00:59:50.625 : :Chapter 05
01:14:50.958 : :Chapter 06
01:24:05.375 : :Chapter 07
01:35:56.541 : :Chapter 08
x264 [info]: frame I:995 Avg QP:16.56 size: 140692
x264 [info]: frame P:33077 Avg QP:17.72 size: 74275
x264 [info]: frame B:109219 Avg QP:19.91 size: 33326


_________________
Проголосуй за трекер Открытый торрент трекер - RUS-MEDIA.ORG

Проголосуй Открытый торрент трекер - RUS-MEDIA.ORG


Вернуться к началу
 Профиль Отправить личное сообщение  
 
   Похожие торренты   Автор   Торрент   Размер 
В этой теме нет новых непрочитанных сообщений. Восход «Черной луны» / Black Moon Rising [Боевик, фантастика, триллер, 1986] BDRip-HEVC 1080p, Dub

salma3

0 | 0

8.96 ГБ

В этой теме нет новых непрочитанных сообщений. Восход «Черной луны» / Black Moon Rising [боевик, триллер, 1986] BDRip, Dvo

salma3

60 | 13

745.15 МБ

В этой теме нет новых непрочитанных сообщений. Дитя луны / Moon Child [фантастика, боевик, драма, 2003] BDRip 1080p, Mvo+Sub

salma3

37 | 20

9.15 ГБ

В этой теме нет новых непрочитанных сообщений. Трансформеры 3: Темная сторона Луны / Transformers: Dark of the Moon [Фантастика, боевик, приключения, 2011] BDRip-HEVC 1080p, Dub

salma3

0 | 0

10.69 ГБ

В этой теме нет новых непрочитанных сообщений. Волчица. Восход / She Wolf Rising [ужасы, 2016] WEB-DLRip, Mvo

salma3

175 | 33

1.37 ГБ

В этой теме нет новых непрочитанных сообщений. Подъем с глубины / Deep Rising [ужасы, фантастика, боевик, приключения, 1998] BDRip 720p, Mvo+Dvo+Avo+Sub

salma3

48 | 42

7.46 ГБ

В этой теме нет новых непрочитанных сообщений. Волчица. Восход / She Wolf Rising [ужасы, 2016] WEB-DLRip 720р, Mvo

salma3

88 | 30

2.9 ГБ


Начать новую тему Ответить на тему  [ 1 сообщение ] 




Для Мосгорсуда, Роскомнадзора и рекламодателей:: mosgorsud-torrent[собачка]yandex.ru
cron