Торрент файл
скачать торрент магнет ссылка Добавлен: 23 дек 2017, 13:03
Размер: 5.33 ГБ
Сидеров: 0
Личеров: 83
Статус: (salma3)
Автор

СообщениеДобавлено: 23 дек 2017, 13:03 

Не в сети
Супермодератор
Аватара пользователя
Дата регистрации:
15 фев 2012, 16:44
Возраст: 28
Спасибо: 7290 / 2147
Сообщения: 70823
Год выхода: 1999
Жанр: Триллер, Комедия, Криминал
Режиссер: Даг Лимэн

В ролях: Кэти Холмс, Сара Полли, Скотт Вулф, Джей Мор, Тимоти Олифант, Уильям Фихтнер, Десмонд Аскью, Натан Бекстон, Сюзанн Крулл, Джош Пэддок

О фильме:
Фильм, достойный Квентина Тарантино и виртуозно продолжающий традиции Криминального чтивa и Четырех комнат. Вас ждут три истории, сплетенные в непредсказуемый клубок мастерской режиссурой Дага Лимана. Утром очаровательная кассирша Рона знакомится со странной парочкой, днем оставляет свою подругу в залог, вечером оказывается в придорожной канаве без признаков жизни. Наркоделец Саймон начинает день в багажнике автомобиля, продолжает его в горящем номере с двумя женщинами и заканчивает гонками без правил на улицах Лас-Вегаса. Сладкая парочка Зак и Адам целые сутки помогают полиции, мешая всем остальным, за что в конце удостаиваются чести поужинать с полоумным служителем закона. Между тем такие разные истории ожидает один и тот же непредсказуемый финал...



Страна: США - Millennium Films
Продолжительность: 01:41:56
Перевод: Дублированный

Файл
Кодек: MKV
Качество: BDRip 720p
Видео: 1280x534 (2.40:1), 23.976 fps, AVC, ~4845 Kbps, 0.296 bits/pixel
Аудио: Russian, 48.0 KHz, AC3, 6 ch, 384 Kbps - Дубляж
Аудио 2: Russian, 48.0 KHz, AC3, 6 ch, 384 Kbps - Многоголосый закадровый
Аудио 3: Russian, 48.0 KHz, AC3, 2 ch, 320 Kbps - Авторский - Юрий Живов
Аудио 4: Ukrainian, 48.0 KHz, AC3, 6 ch, 384 Kbps - Двухголосый закадровый - Новий канал
Аудио 5: Ukrainian, 48.0 KHz, AC3, 6 ch, 384 Kbps - Двухголосый закадровый - 1+1
Аудио 6: English, 48.0 KHz, AC3, 6 ch, 640 Kbps - original
Формат субтитров: softsub (SRT)
Общее
Уникальный идентификатор : 224470060073276172649571805382868642021 (0xA8DF5C6C8CFB81368018FB2F028EA8E5)
Полное имя : D:Go.1999.BDRip.720p.3xRus.2xUkr.Eng.mkv
Формат : Matroska
Версия формата : Version 4 / Version 2
Размер файла : 5,33 Гбайт
Продолжительность : 1 ч. 41 м.
Общий поток : 7490 Кбит/сек
Название фильма : Rip by msltel
Дата кодирования : UTC 2017-12-22 21:44:25
Программа кодирования : mkvmerge v7.9.0 ('Birds') 64bit
Библиотека кодирования : libebml v1.3.1 + libmatroska v1.4.2

Видео
Идентификатор : 1
Формат : AVC
Формат/Информация : Advanced Video Codec
Профиль формата : High@L4.1
Параметр CABAC формата : Да
Параметр RefFrames формата : 9 кадров
Идентификатор кодека : V_MPEG4/ISO/AVC
Продолжительность : 1 ч. 41 м.
Битрейт : 4991 Кбит/сек
Ширина : 1280 пикселей
Высота : 534 пикселя
Соотношение сторон : 2,40:1
Режим частоты кадров : Постоянный
Частота кадров : 23,976 (24000/1001) кадра/сек
Цветовое пространство : YUV
Субдискретизация насыщенности : 4:2:0
Битовая глубина : 8 бит
Тип развёртки : Прогрессивная
Бит/(Пиксели*Кадры) : 0.305
Размер потока : 3,55 Гбайт (67%)
Библиотека кодирования : x264 core 146 r2538 121396c
Настройки программы : cabac=1 / ref=9 / deblock=1:-3:-2 / analyse=0x3:0x113 / me=umh / subme=11 / psy=1 / psy_rd=1.00:0.15 / mixed_ref=1 / me_range=32 / chroma_me=1 / trellis=2 / 8x8dct=1 / cqm=0 / deadzone=21,11 / fast_pskip=0 / chroma_qp_offset=-3 / threads=6 / lookahead_threads=1 / sliced_threads=0 / nr=0 / decimate=1 / interlaced=0 / bluray_compat=0 / constrained_intra=0 / bframes=7 / b_pyramid=2 / b_adapt=2 / b_bias=0 / direct=1 / weightb=1 / open_gop=0 / weightp=2 / keyint=230 / keyint_min=23 / scenecut=40 / intra_refresh=0 / rc_lookahead=40 / rc=crf / mbtree=0 / crf=18.8 / qcomp=0.60 / qpmin=0 / qpmax=69 / qpstep=4 / vbv_maxrate=62500 / vbv_bufsize=78125 / crf_max=0.0 / nal_hrd=none / filler=0 / ip_ratio=1.40 / pb_ratio=1.30 / aq=1:1.00
Язык : English
Default : Да
Forced : Нет

Аудио #1
Идентификатор : 2
Формат : AC-3
Формат/Информация : Audio Coding 3
Параметр Endianness формата : Big
Идентификатор кодека : A_AC3
Продолжительность : 1 ч. 41 м.
Вид битрейта : Постоянный
Битрейт : 384 Кбит/сек
Каналы : 6 каналов
Расположение каналов : Front: L C R, Side: L R, LFE
Частота : 48,0 КГц
Частота кадров : 31,250 кадров/сек (1536 SPF)
Битовая глубина : 16 бит
Метод сжатия : С потерями
Размер потока : 280 Мбайт (5%)
Заголовок : DUB
Язык : Russian
ServiceKind/String : Complete Main
Default : Да
Forced : Нет

Аудио #2
Идентификатор : 3
Формат : AC-3
Формат/Информация : Audio Coding 3
Параметр Endianness формата : Big
Идентификатор кодека : A_AC3
Продолжительность : 1 ч. 41 м.
Вид битрейта : Постоянный
Битрейт : 384 Кбит/сек
Каналы : 6 каналов
Расположение каналов : Front: L C R, Side: L R, LFE
Частота : 48,0 КГц
Частота кадров : 31,250 кадров/сек (1536 SPF)
Битовая глубина : 16 бит
Метод сжатия : С потерями
Размер потока : 280 Мбайт (5%)
Заголовок : MVO
Язык : Russian
ServiceKind/String : Complete Main
Default : Нет
Forced : Нет

Аудио #3
Идентификатор : 4
Формат : AC-3
Формат/Информация : Audio Coding 3
Параметр Endianness формата : Big
Идентификатор кодека : A_AC3
Продолжительность : 1 ч. 41 м.
Вид битрейта : Постоянный
Битрейт : 320 Кбит/сек
Каналы : 2 канала
Расположение каналов : Front: L R
Частота : 48,0 КГц
Частота кадров : 31,250 кадров/сек (1536 SPF)
Битовая глубина : 16 бит
Метод сжатия : С потерями
Размер потока : 233 Мбайт (4%)
Заголовок : Юрий Живов
Язык : Russian
ServiceKind/String : Complete Main
Default : Нет
Forced : Нет

Аудио #4
Идентификатор : 5
Формат : AC-3
Формат/Информация : Audio Coding 3
Параметр Endianness формата : Big
Идентификатор кодека : A_AC3
Продолжительность : 1 ч. 41 м.
Вид битрейта : Постоянный
Битрейт : 384 Кбит/сек
Каналы : 6 каналов
Расположение каналов : Front: L C R, Side: L R, LFE
Частота : 48,0 КГц
Частота кадров : 31,250 кадров/сек (1536 SPF)
Битовая глубина : 16 бит
Метод сжатия : С потерями
Размер потока : 280 Мбайт (5%)
Заголовок : Двухголосый закадровый - Новий канал
Язык : Ukrainian
ServiceKind/String : Complete Main
Default : Нет
Forced : Нет

Аудио #5
Идентификатор : 6
Формат : AC-3
Формат/Информация : Audio Coding 3
Параметр Endianness формата : Big
Идентификатор кодека : A_AC3
Продолжительность : 1 ч. 41 м.
Вид битрейта : Постоянный
Битрейт : 384 Кбит/сек
Каналы : 6 каналов
Расположение каналов : Front: L C R, Side: L R, LFE
Частота : 48,0 КГц
Частота кадров : 31,250 кадров/сек (1536 SPF)
Битовая глубина : 16 бит
Метод сжатия : С потерями
Размер потока : 280 Мбайт (5%)
Заголовок : Двухголосый закадровый - 1+1
Язык : Ukrainian
ServiceKind/String : Complete Main
Default : Нет
Forced : Нет

Аудио #6
Идентификатор : 7
Формат : AC-3
Формат/Информация : Audio Coding 3
Параметр Endianness формата : Big
Идентификатор кодека : A_AC3
Продолжительность : 1 ч. 41 м.
Вид битрейта : Постоянный
Битрейт : 640 Кбит/сек
Каналы : 6 каналов
Расположение каналов : Front: L C R, Side: L R, LFE
Частота : 48,0 КГц
Частота кадров : 31,250 кадров/сек (1536 SPF)
Битовая глубина : 16 бит
Метод сжатия : С потерями
Размер потока : 467 Мбайт (9%)
Заголовок : original
Язык : English
ServiceKind/String : Complete Main
Default : Нет
Forced : Нет

Текст #1
Идентификатор : 8
Формат : UTF-8
Идентификатор кодека : S_TEXT/UTF8
Идентификатор кодека/Информация : UTF-8 Plain Text
Продолжительность : 1 ч. 40 м.
Битрейт : 77 бит/сек
ElementCount : 1169
Размер потока : 57,1 Кбайт (0%)
Заголовок : русские вариант 1
Язык : Russian
Default : Нет
Forced : Нет

Текст #2
Идентификатор : 9
Формат : UTF-8
Идентификатор кодека : S_TEXT/UTF8
Идентификатор кодека/Информация : UTF-8 Plain Text
Продолжительность : 1 ч. 38 м.
Битрейт : 84 бит/сек
ElementCount : 1165
Размер потока : 60,9 Кбайт (0%)
Заголовок : русские вариант 2
Язык : Russian
Default : Нет
Forced : Нет

Текст #3
Идентификатор : 10
Формат : UTF-8
Идентификатор кодека : S_TEXT/UTF8
Идентификатор кодека/Информация : UTF-8 Plain Text
Продолжительность : 1 ч. 37 м.
Битрейт : 48 бит/сек
ElementCount : 1161
Размер потока : 34,8 Кбайт (0%)
Заголовок : английские
Язык : English
Default : Нет
Forced : Нет

Меню
00:00:00.000 : :Chapter 01
00:05:21.946 : :Chapter 02
00:12:14.859 : :Chapter 03
00:18:37.825 : :Chapter 04
00:26:19.953 : :Chapter 05
00:31:37.770 : :Chapter 06
00:35:10.525 : :Chapter 07
00:43:12.172 : :Chapter 08
00:48:49.843 : :Chapter 09
00:58:17.619 : :Chapter 10
01:04:54.599 : :Chapter 11
01:13:33.534 : :Chapter 12
01:20:49.135 : :Chapter 13
01:25:31.209 : :Chapter 14
01:29:58.810 : :Chapter 15
01:34:13.022 : :Chapter 16



_________________
Проголосуй за трекер Открытый торрент трекер - RUS-MEDIA.ORG

Проголосуй Открытый торрент трекер - RUS-MEDIA.ORG


Вернуться к началу
 Профиль Отправить личное сообщение  
 
   Похожие торренты   Автор   Торрент   Размер 
В этой теме нет новых непрочитанных сообщений. Экстази / Go [Триллер, комедия, криминал, 1999] BDRip 1080p, Dub

salma3

0 | 40

11.32 ГБ

В этой теме нет новых непрочитанных сообщений. Экстази / Go [комедия, криминал, 1999] BDRip-AVC, Dub

salma3

0 | 2

2.44 ГБ

В этой теме нет новых непрочитанных сообщений. Экстази / Go [Триллер, комедия, криминал, 1999] BDRemux 1080p, Dub

salma3

12 | 9

23.11 ГБ

В этой теме нет новых непрочитанных сообщений. Воскрешение / Resurrection [триллер, драма, криминал, 1999] BDRip 720p, Dvo

salma3

0 | 0

4.7 ГБ

В этой теме нет новых непрочитанных сообщений. Анализируй это / Analyze This [комедия, криминал, 1999] BDRip 720p, Dub

salma3

0 | 0

6.6 ГБ

В этой теме нет новых непрочитанных сообщений. К-911: Собачья работа 2 / K-911 [боевик, комедия, криминал, 1999] BDRip 720p, Mvo

salma3

53 | 37

4.91 ГБ

В этой теме нет новых непрочитанных сообщений. Бриллиантовый полицейский / Blue Streak [боевик, триллер, комедия, криминал, 1999] BDRip, Dub

salma3

76 | 5

1.46 ГБ


Начать новую тему Ответить на тему  [ 1 сообщение ] 




Для Мосгорсуда, Роскомнадзора и рекламодателей:: mosgorsud-torrent[собачка]yandex.ru
cron