Торрент файл
скачать торрент магнет ссылка Добавлен: 22 дек 2017, 21:06
Размер: 12.81 ГБ
Сидеров: 35
Личеров: 12
Статус: (salma3)
Автор

СообщениеДобавлено: 22 дек 2017, 21:06 

Не в сети
Супермодератор
Аватара пользователя
Дата регистрации:
15 фев 2012, 16:44
Возраст: 28
Спасибо: 7203 / 2147
Сообщения: 65002
Год выхода: 2012
Жанр: фэнтези, драма, артхаус
Режиссер: Леос Каракс

В ролях: Дени Лаван, Эдит Скоб, Ева Мендес, Кайли Миноуг, Мишель Пикколи, Жанна Диссон, Элис Ломо, Леос Каракс, Настя Голубева Каракс, Реда Омузун

О фильме:
Неведомое существо перемещается из жизни в жизнь. Обретает форму то мужчины, то женщины, то юноши, то умирающего старика. Он может оказаться нищим или сказочным богачом, плутом или достойным семьянином. Героя фильма будет кидать по чужим жизням, он будет обнимать чужих жен и детей, убивать чужих врагов. Однако, сам он смертельно одинок. Где его дом, его близкие, что он такое на самом деле?



Страна: Франция, Германия
Студия: Pierre Grise Productions
Продолжительность: 01:55:30
Перевод: Профессиональный (многоголосый закадровый) Многоголосый (R5)
Перевод 2: Профессиональный (многоголосый закадровый) Многоголосый (Первый канал)
Перевод 3: Украинский: Профессиональный (многоголосый закадровый) Многоголосый (НЛО-ТВ)

Формат: MKV
Качество: BDRip 1080p
Видео: 1920x1036 (1.85:1), 24.000 fps, AVC, ~13.2 Mbps, 0.277 bits/pixel
Звук:
Аудио #01: Русский, Dolby Digital, 5.1, 448 kbps - Многоголосый (R5)
Аудио #02: Русский, Dolby Digital, 2.0, 192 kbps - Многоголосый (Первый канал)
Аудио #03: Украинский, Dolby Digital, 2.0, 192 kbps - Многоголосый (НЛО-ТВ)
Аудио #04: Французский,French, 48.0 KHz, DTS, 6 ch, 1510 Kbps - original Оригинал
Субтитры: русские, английские


Общее
Уникальный идентификатор : 196629794071694510858584795642390818705 (0x93ED8555845FF487A821A04DA8CEAF91)
Полное имя : D:Holy.Motors.2012.BDRip.1080p.2xRus.Ukr.Fra.mkv
Формат : Matroska
Версия формата : Version 4 / Version 2
Размер файла : 12,8 Гбайт
Продолжительность : 1 ч. 55 м.
Общий поток : 15,9 Мбит/сек
Название фильма : Rip by msltel
Дата кодирования : UTC 2017-12-22 12:45:43
Программа кодирования : mkvmerge v7.9.0 ('Birds') 64bit
Библиотека кодирования : libebml v1.3.1 + libmatroska v1.4.2

Видео
Идентификатор : 1
Формат : AVC
Формат/Информация : Advanced Video Codec
Профиль формата : High@L4.1
Параметр CABAC формата : Да
Параметр RefFrames формата : 4 кадра
Идентификатор кодека : V_MPEG4/ISO/AVC
Продолжительность : 1 ч. 55 м.
Битрейт : 13,5 Мбит/сек
Ширина : 1920 пикселей
Высота : 1036 пикселей
Соотношение сторон : 1,85:1
Режим частоты кадров : Постоянный
Частота кадров : 24,000 кадра/сек
Цветовое пространство : YUV
Субдискретизация насыщенности : 4:2:0
Битовая глубина : 8 бит
Тип развёртки : Прогрессивная
Бит/(Пиксели*Кадры) : 0.284
Размер потока : 10,9 Гбайт (85%)
Библиотека кодирования : x264 core 146 r2538 121396c
Настройки программы : cabac=1 / ref=4 / deblock=1:-3:-2 / analyse=0x3:0x113 / me=umh / subme=11 / psy=1 / psy_rd=1.00:0.15 / mixed_ref=1 / me_range=32 / chroma_me=1 / trellis=2 / 8x8dct=1 / cqm=0 / deadzone=21,11 / fast_pskip=0 / chroma_qp_offset=-3 / threads=6 / lookahead_threads=1 / sliced_threads=0 / nr=0 / decimate=1 / interlaced=0 / bluray_compat=0 / constrained_intra=0 / bframes=8 / b_pyramid=2 / b_adapt=2 / b_bias=0 / direct=1 / weightb=1 / open_gop=0 / weightp=2 / keyint=230 / keyint_min=23 / scenecut=40 / intra_refresh=0 / rc_lookahead=40 / rc=crf / mbtree=0 / crf=17.2 / qcomp=0.60 / qpmin=0 / qpmax=69 / qpstep=4 / vbv_maxrate=62500 / vbv_bufsize=78125 / crf_max=0.0 / nal_hrd=none / filler=0 / ip_ratio=1.40 / pb_ratio=1.30 / aq=1:1.00
Язык : French
Default : Да
Forced : Нет

Аудио #1
Идентификатор : 2
Формат : AC-3
Формат/Информация : Audio Coding 3
Параметр Endianness формата : Big
Идентификатор кодека : A_AC3
Продолжительность : 1 ч. 55 м.
Вид битрейта : Постоянный
Битрейт : 448 Кбит/сек
Каналы : 6 каналов
Расположение каналов : Front: L C R, Side: L R, LFE
Частота : 48,0 КГц
Частота кадров : 31,250 кадров/сек (1536 SPF)
Битовая глубина : 16 бит
Метод сжатия : С потерями
Размер потока : 370 Мбайт (3%)
Заголовок : Многоголосый закадровый - R5
Язык : Russian
ServiceKind/String : Complete Main
Default : Да
Forced : Нет

Аудио #2
Идентификатор : 3
Формат : AC-3
Формат/Информация : Audio Coding 3
Параметр Endianness формата : Big
Идентификатор кодека : A_AC3
Продолжительность : 1 ч. 55 м.
Вид битрейта : Постоянный
Битрейт : 192 Кбит/сек
Каналы : 2 канала
Расположение каналов : Front: L R
Частота : 48,0 КГц
Частота кадров : 31,250 кадров/сек (1536 SPF)
Битовая глубина : 16 бит
Метод сжатия : С потерями
Размер потока : 159 Мбайт (1%)
Заголовок : Многоголосый закадровый - OPT
Язык : Russian
ServiceKind/String : Complete Main
Default : Нет
Forced : Нет

Аудио #3
Идентификатор : 4
Формат : AC-3
Формат/Информация : Audio Coding 3
Параметр Endianness формата : Big
Идентификатор кодека : A_AC3
Продолжительность : 1 ч. 55 м.
Вид битрейта : Постоянный
Битрейт : 192 Кбит/сек
Каналы : 2 канала
Расположение каналов : Front: L R
Частота : 48,0 КГц
Частота кадров : 31,250 кадров/сек (1536 SPF)
Битовая глубина : 16 бит
Метод сжатия : С потерями
Размер потока : 159 Мбайт (1%)
Заголовок : Многоголосый закадровый - НЛО-ТВ
Язык : Ukrainian
ServiceKind/String : Complete Main
Default : Нет
Forced : Нет

Аудио #4
Идентификатор : 5
Формат : DTS
Формат/Информация : Digital Theater Systems
Режим : 16
Параметр Endianness формата : Big
Идентификатор кодека : A_DTS
Продолжительность : 1 ч. 55 м.
Вид битрейта : Постоянный
Битрейт : 1509 Кбит/сек
Каналы : 6 каналов
Расположение каналов : Front: L C R, Side: L R, LFE
Частота : 48,0 КГц
Частота кадров : 93,750 кадра/сек (512 SPF)
Битовая глубина : 16 бит
Метод сжатия : С потерями
Размер потока : 1,22 Гбайт (10%)
Заголовок : original
Язык : French
Default : Нет
Forced : Нет

Текст #1
Идентификатор : 6
Формат : UTF-8
Идентификатор кодека : S_TEXT/UTF8
Идентификатор кодека/Информация : UTF-8 Plain Text
Продолжительность : 1 ч. 50 м.
Битрейт : 29 бит/сек
ElementCount : 570
Размер потока : 23,8 Кбайт (0%)
Заголовок : русские
Язык : Russian
Default : Нет
Forced : Нет

Текст #2
Идентификатор : 7
Формат : UTF-8
Идентификатор кодека : S_TEXT/UTF8
Идентификатор кодека/Информация : UTF-8 Plain Text
Продолжительность : 1 ч. 45 м.
Битрейт : 14 бит/сек
ElementCount : 513
Размер потока : 11,3 Кбайт (0%)
Язык : English
Default : Да
Forced : Нет

Меню
00:00:00.000 : :Chapter 01
00:09:53.790 : :Chapter 02
00:18:45.708 : :Chapter 03
00:31:17.833 : :Chapter 04
00:41:49.708 : :Chapter 05
00:52:06.041 : :Chapter 06
01:02:09.833 : :Chapter 07
01:11:20.916 : :Chapter 08
01:22:57.416 : :Chapter 09
01:32:01.541 : :Chapter 10
01:42:51.833 : :Chapter 11
01:50:48.500 : :Chapter 12



Релиз от:


_________________
Проголосуй за трекер Открытый торрент трекер - RUS-MEDIA.ORG

Проголосуй Открытый торрент трекер - RUS-MEDIA.ORG


Вернуться к началу
 Профиль Отправить личное сообщение  
 
   Похожие торренты   Автор   Торрент   Размер 
В этой теме нет новых непрочитанных сообщений. Корпорация «Святые моторы» / Holy Motors [фэнтези, драма, 2012] BDRemux 1080p, Mvo

salma3

10 | 4

24.49 ГБ

В этой теме нет новых непрочитанных сообщений. Святые роллеры / Holy Rollers [драма, криминал, биография, история, 2010] BDRip 720р, Avo

salma3

14 | 2

3.99 ГБ

В этой теме нет новых непрочитанных сообщений. Святые узы брака / Holy Matrimony [комедия, криминал, 1994] BDRip 720p, Mvo+Dvo+Avo+Sub

salma3

48 | 22

4.36 ГБ

В этой теме нет новых непрочитанных сообщений. Святые узы брака / Holy Matrimony [комедия, криминал, 1994] HDRip, Mvo

salma3

31 | 5

1.46 ГБ

В этой теме нет новых непрочитанных сообщений. Святые узы брака / Holy Matrimony [Комедия, криминал, 1994] BD-Remux 1080i, Mvo+Dvo+Avo

salma3

19 | 61

21.17 ГБ

В этой теме нет новых непрочитанных сообщений. но тебя люблю / Il y a longtemps que je t'aime [драма, детектив, артхаус, 2008] BDRip 1080p, Mvo

salma3

41 | 23

9.88 ГБ

В этой теме нет новых непрочитанных сообщений. Все святые / All Saints [драма, 2017] BDRip 1080p, Mvo [Лицензия]

salma3

0 | 1

8.37 ГБ


Начать новую тему Ответить на тему  [ 1 сообщение ] 




Для Мосгорсуда, Роскомнадзора и рекламодателей:: mosgorsud-torrent[собачка]yandex.ru
cron