Торрент файл
скачать торрент магнет ссылка Добавлен: 22 дек 2017, 21:03
Размер: 4.97 ГБ
Сидеров: 49
Личеров: 9
Статус: (salma3)
Автор

СообщениеДобавлено: 22 дек 2017, 21:03 

Не в сети
Супермодератор
Аватара пользователя
Дата регистрации:
15 фев 2012, 16:44
Возраст: 28
Спасибо: 7290 / 2147
Сообщения: 70562
Год выхода: 2010
Жанр: боевик, драма, криминал
Режиссер: Стивен Филипович

В ролях: Никола Ракочевич, Виктор Савич, Бояна Новакович, Наташа Солак, Никола Койо, Драган Мичанович, Срджан Милетич, Предраг Эйдус, Ясмина Аврамович

Описание: Это история молодого человека, подающего надежды ученика средней школы, который попав под влияние идеологии неонацизма, стал болельщиком футбольного клуба Радник.



Страна: Сербия
Продолжительность: 01:37:33
Перевод: Любительский (одноголосый, закадровый) den904
Субтитры: русские

Файл
Качество: BDRip 720p
Видео: MPEG-4 AVC, 1280x720, 6508 кбит/сек, 25.00 fps
Аудио 1: 48 kHz, AC3 Dolby Digital, 2/0 (L,R) ch, ~192 kbps den904
Аудио 2: 48 kHz, AC3, 3/2 (L,C,R,l,r) + LFE ch, ~448 kbps avg original

Общее
Уникальный идентификатор : 204360353425968566488285657398047477070 (0x99BE5F56517DE817B2BBF44D56750D4E)
Полное имя : СТРИЖКА(VO+SUB).2010.720p.Bluray.DD5.1.x264-lord_i_74.mkv
Формат : Matroska
Версия формата : Version 2
Размер файла : 4,97 Гбайт
Продолжительность : 1 ч. 37 м.
Режим общего битрейта : Переменный
Общий поток : 7293 Кбит/сек
Дата кодирования : UTC 2012-06-08 08:30:25
Программа кодирования : mkvmerge v5.0.1 ('Es ist Sommer') built on Oct 9 2011 11:55:43
Библиотека кодирования : libebml v1.2.2 + libmatroska v1.3.0

Видео
Идентификатор : 1
Формат : AVC
Формат/Информация : Advanced Video Codec
Профиль формата : High@L4.1
Параметр CABAC формата : Да
Параметр ReFrames формата : 9 кадров
Идентификатор кодека : V_MPEG4/ISO/AVC
Продолжительность : 1 ч. 37 м.
Вид битрейта : Переменный
Битрейт : 6508 Кбит/сек
Максимальный битрейт : 40,0 Мбит/сек
Ширина : 1280 пикселей
Высота : 720 пикселей
Соотношение сторон : 16:9
Режим частоты кадров : Постоянный
Частота кадров : 25,000 кадров/сек
Цветовое пространство : YUV
Субдискретизация насыщенности : 4:2:0
Битовая глубина : 8 бит
Тип развёртки : Прогрессивная
Бит/(Пиксели*Кадры) : 0.282
Размер потока : 4,43 Гбайт (89%)
Библиотека кодирования : x264 core 120 r2164 da19765
Настройки программы : cabac=1 / ref=9 / deblock=1:0:0 / analyse=0x3:0x133 / me=umh / subme=10 / psy=1 / psy_rd=1.00:0.00 / mixed_ref=1 / me_range=24 / chroma_me=1 / trellis=2 / 8x8dct=1 / cqm=0 / deadzone=21,11 / fast_pskip=0 / chroma_qp_offset=-2 / threads=6 / sliced_threads=0 / nr=0 / decimate=0 / interlaced=0 / bluray_compat=0 / constrained_intra=0 / bframes=6 / b_pyramid=2 / b_adapt=2 / b_bias=0 / direct=3 / weightb=1 / open_gop=0 / weightp=2 / keyint=250 / keyint_min=25 / scenecut=40 / intra_refresh=0 / rc=crf / mbtree=0 / crf=18.8 / qcomp=0.60 / qpmin=0 / qpmax=69 / qpstep=4 / ip_ratio=1.40 / pb_ratio=1.30 / aq=1:0.8
Default : Да
Forced : Нет

Аудио #1
Идентификатор : 2
Формат : AC-3
Формат/Информация : Audio Coding 3
Расширение режима : CM (complete main)
Параметр Endianness формата : Big
Идентификатор кодека : A_AC3
Продолжительность : 1 ч. 37 м.
Вид битрейта : Постоянный
Битрейт : 192 Кбит/сек
Каналы : 2 канала
Расположение каналов : Front: L R
Частота : 48,0 КГц
Битовая глубина : 16 бит
Метод сжатия : С потерями
Размер потока : 134 Мбайт (3%)
Заголовок : VO den904
Язык : Russian
Default : Да
Forced : Нет

Аудио #2
Идентификатор : 3
Формат : AC-3
Формат/Информация : Audio Coding 3
Расширение режима : CM (complete main)
Параметр Endianness формата : Big
Идентификатор кодека : A_AC3
Продолжительность : 1 ч. 37 м.
Вид битрейта : Постоянный
Битрейт : 448 Кбит/сек
Каналы : 6 каналов
Расположение каналов : Front: L C R, Side: L R, LFE
Частота : 48,0 КГц
Битовая глубина : 16 бит
Метод сжатия : С потерями
Размер потока : 313 Мбайт (6%)
Язык : Serbian
Default : Нет
Forced : Нет

Текст
Идентификатор : 4
Формат : UTF-8
Идентификатор кодека : S_TEXT/UTF8
Идентификатор кодека/Информация : UTF-8 Plain Text
Заголовок : sub merrzavka
Язык : Russian
Default : Нет
Forced : Нет


_________________
Проголосуй за трекер Открытый торрент трекер - RUS-MEDIA.ORG

Проголосуй Открытый торрент трекер - RUS-MEDIA.ORG


Вернуться к началу
 Профиль Отправить личное сообщение  
 
   Похожие торренты   Автор   Торрент   Размер 
В этой теме нет новых непрочитанных сообщений. Убойная стрижка / The Legend of Barney Thomson [Комедия, криминал, 2015] BDRip 720p, Dub [iTunes]

salma3

136 | 19

3.24 ГБ

В этой теме нет новых непрочитанных сообщений. Убойная стрижка / The Legend of Barney Thomson [комедия, криминал, 2015] BDRip 1080p, Dun

salma3

59 | 1

6.56 ГБ

В этой теме нет новых непрочитанных сообщений. 22 пули: Бессмертный / L'immortel [боевик, драма, криминал, 2010] BDRip 720p, Dub

salma3

158 | 14

4.88 ГБ

В этой теме нет новых непрочитанных сообщений. 22 пули: Бессмертный / L'immortel (Ришар Берри) [2010, боевик, драма, криминал, BDRip, 720p]

marya111

0 | 2

6.87 ГБ

В этой теме нет новых непрочитанных сообщений. Тюряга / Lock Up [боевик, драма, криминал, 1989] BDRip 720p, Mvo

salma3

0 | 0

8.5 ГБ

В этой теме нет новых непрочитанных сообщений. Холодная война 2 / Hon zin 2 [боевик, драма, криминал, 2016] BDRip 720p, Mvo

salma3

156 | 74

4.41 ГБ

В этой теме нет новых непрочитанных сообщений. Безжалостный / The Merciless / Boolhandang [Драма, боевик, криминал, 2017] BDRip 720p, Dvo

salma3

0 | 0

4.71 ГБ


Начать новую тему Ответить на тему  [ 1 сообщение ] 




Для Мосгорсуда, Роскомнадзора и рекламодателей:: mosgorsud-torrent[собачка]yandex.ru
cron