Торрент файл
скачать торрент магнет ссылка Добавлен: 22 дек 2017, 15:28
Размер: 18.06 ГБ
Сидеров: 61
Личеров: 21
Статус: (salma3)
Автор

СообщениеДобавлено: 22 дек 2017, 15:28 

Не в сети
Супермодератор
Аватара пользователя
Дата регистрации:
15 фев 2012, 16:44
Возраст: 28
Спасибо: 7224 / 2147
Сообщения: 67983
Год выхода: 1987
Жанр: фантастика, боевик
Режиссер: Джон МакТирнан

В ролях: Арнольд Шварценеггер, Карл Уэверз, Элпидия Каррильо, Билл Дьюк, Джесси Вентура, Сонни Лендхэм, Ричард Чавес, Р.Г. Армстронг, Шэйн Блэк, Кевин Питер Холл

О фильме:
Американский вертолет был сбит партизанами в Южной Америке. Оставшийся в живых экипаж находится в плену. Центральное разведывательное управление США бросает свои лучшие силы для освобождения американских граждан. Элитная группа спецназа во главе с Датчем была заброшена в южноамериканские джунгли. Но то, с чем им придётся столкнуться, не поддаётся никакому обьяснению...



Страна: США
Продолжительность: 01:46:43
Перевод: профессиональный (дублированный), профессиональный (многоголосый), профессиональный (двухголосый), авторский (одноголосый)
Субтитры: русские, английские

Формат: MKV
Качество: WEB-DL 1080p
Видео: MPEG-4 AVC / 13.5 Mbps / 1920x1080 / 23.976 fps
Звук:
Аудио#1: Russian / DTS Audio / 5.1 / 48 kHz / 768 kbps Дубляж, Blu-ray CEE
Аудио#2: Russian / Dolby Digital Audio / 5.1 / 48 kHz / 448 kbps Многоголосый, Киномания
Аудио#3: Russian / Dolby Digital Audio / 2.0 / 48 kHz / 192 kbps Многоголосый, Лазер Видео
Аудио#4: Russian / Dolby Digital Audio / 5.1 / 48 kHz / 384 kbps Многоголосый, Гемини (R5)
Аудио#5: Russian / Dolby Digital Audio / 2.0 / 48 kHz / 256 kbps Многоголосый, ОРТ
Аудио#6: Russian / Dolby Digital Audio / 2.0 / 48 kHz / 192 kbps Двухголосый, НТВ
Аудио#7: Russian / Dolby Digital Audio / 2.0 / 48 kHz / 192 kbps Двухголосый, Рен-ТВ
Аудио#8: Russian / DTS Audio / 5.1 / 48 kHz / 1509 kbps Двухголосый, Гланц Пётр и Королёва Инна
Аудио#9: Russian / Dolby Digital Audio / 2.0 / 48 kHz / 192 kbps Двухголосый, Премьер Видео Фильм
Аудио#10: Russian / Dolby Digital Audio / 2.0 / 48 kHz / 256 kbps DVO - Неизвестный
Аудио#11: Russian / Dolby Digital Audio / 5.1 / 48 kHz / 448 kbps Авторский, Гаврилов Андрей
Аудио#12: Russian / Dolby Digital Audio / 2.0 / 48 kHz / 192 kbps Авторский, Гаврилов Андрей (ранний с VHS)
Аудио#13: Russian / Dolby Digital Audio / 2.0 / 48 kHz / 256 kbps Авторский, Живов Юрий
Аудио#14: Russian / Dolby Digital Audio / 2.0 / 48 kHz / 256 kbps Авторский, Горчаков Василий
Аудио#15: Russian / Dolby Digital Audio / 2.0 / 48 kHz / 256 kbps Авторский, Латышев Максим
Аудио#16: Russian / Dolby Digital Audio / 2.0 / 48 kHz / 256 kbps Авторский, Либергал Григорий
Аудио#17: Russian / Dolby Digital Audio / 2.0 / 48 kHz / 256 kbps Авторский, Фёдоров Борис
Аудио#18: Russian / Dolby Digital Audio / 2.0 / 48 kHz / 192 kbps Авторский, Дохалов Вартан
Аудио#19: Russian / DTS Audio / 5.1 / 48 kHz / 1509 kbps Одноголосый, Дмитрий "Гоблин" Пучков
Аудио#20: Ukrainian / Dolby Digital Audio / 5.1 / 48 kHz / 384 kbps Многоголосый, 1+1
Аудио#21: Ukrainian / Dolby Digital Audio / 5.1 / 48 kHz / 384 kbps Многоголосый, ICTV
Аудио#22: English / DTS Audio / 5.1 / 48 kHz / 1509 kbps

Format : Matroska
Format version : Version 2
File size : 18.1 GiB
Duration : 1 h 46 min
Overall bit rate mode : Variable
Overall bit rate : 24.2 Mb/s
Encoded date : UTC 2017-12-19 13:24:45
Writing application : mkvmerge v5.5.0 ('Healer') built on Apr 6 2012 21:43:24
Writing library : libebml v1.2.3 + libmatroska v1.3.0
Cover : Yes
Attachments : cover.jpg / cover.jpg

Video
ID : 1
Format : AVC
Format/Info : Advanced Video Codec
Format profile : High@L4
Format settings, CABAC : Yes
Format settings, RefFrames : 4 frames
Muxing mode : Header stripping
Codec ID : V_MPEG4/ISO/AVC
Duration : 1 h 46 min
Bit rate mode : Variable
Bit rate : 13.5 Mb/s
Maximum bit rate : 15.0 Mb/s
Width : 1 920 pixels
Height : 1 080 pixels
Display aspect ratio : 16:9
Frame rate mode : Constant
Frame rate : 23.976 (24000/1001) FPS
Color space : YUV
Chroma subsampling : 4:2:0
Bit depth : 8 bits
Scan type : Progressive
Bits/(Pixel*Frame) : 0.271
Stream size : 10.0 GiB (56%)
Title : WEB-DL 1080p (Amazon)
Language : English
Default : Yes
Forced : Yes
Color range : Limited
Color primaries : BT.709
Transfer characteristics : BT.709
Matrix coefficients : BT.709

Audio #1
ID : 2
Format : DTS
Format/Info : Digital Theater Systems
Mode : 16
Format settings, Endianness : Big
Muxing mode : Header stripping
Codec ID : A_DTS
Duration : 1 h 46 min
Bit rate mode : Constant
Bit rate : 768 kb/s
Channel(s) : 6 channels
Channel positions : Front: L C R, Side: L R, LFE
Sampling rate : 48.0 kHz
Frame rate : 93.750 FPS (512 SPF)
Bit depth : 24 bits
Compression mode : Lossy
Delay relative to video : 8 s 0 ms
Stream size : 586 MiB (3%)
Title : DUB - CPIG
Language : Russian
Default : Yes
Forced : Yes

Audio #2
ID : 3
Format : AC-3
Format/Info : Audio Coding 3
Format settings, Endianness : Big
Muxing mode : Header stripping
Codec ID : A_AC3
Duration : 1 h 46 min
Bit rate mode : Constant
Bit rate : 448 kb/s
Channel(s) : 6 channels
Channel positions : Front: L C R, Side: L R, LFE
Sampling rate : 48.0 kHz
Frame rate : 31.250 FPS (1536 SPF)
Bit depth : 16 bits
Compression mode : Lossy
Delay relative to video : 8 s 28 ms
Stream size : 342 MiB (2%)
Title : MVO - Киномания
Language : Russian
Service kind : Complete Main
Default : No
Forced : No

Audio #3
ID : 4
Format : AC-3
Format/Info : Audio Coding 3
Format settings, Endianness : Big
Muxing mode : Header stripping
Codec ID : A_AC3
Duration : 1 h 46 min
Bit rate mode : Constant
Bit rate : 192 kb/s
Channel(s) : 2 channels
Channel positions : Front: L R
Sampling rate : 48.0 kHz
Frame rate : 31.250 FPS (1536 SPF)
Bit depth : 16 bits
Compression mode : Lossy
Delay relative to video : 8 s 0 ms
Stream size : 147 MiB (1%)
Title : MVO - Лазер Видео
Language : Russian
Service kind : Complete Main
Default : No
Forced : No

Audio #4
ID : 5
Format : AC-3
Format/Info : Audio Coding 3
Format settings, Endianness : Big
Muxing mode : Header stripping
Codec ID : A_AC3
Duration : 1 h 46 min
Bit rate mode : Constant
Bit rate : 384 kb/s
Channel(s) : 6 channels
Channel positions : Front: L C R, Side: L R, LFE
Sampling rate : 48.0 kHz
Frame rate : 31.250 FPS (1536 SPF)
Bit depth : 16 bits
Compression mode : Lossy
Delay relative to video : 8 s 0 ms
Stream size : 293 MiB (2%)
Title : MVO - Гемини
Language : Russian
Service kind : Complete Main
Default : No
Forced : No

Audio #5
ID : 6
Format : AC-3
Format/Info : Audio Coding 3
Format settings, Endianness : Big
Muxing mode : Header stripping
Codec ID : A_AC3
Duration : 1 h 46 min
Bit rate mode : Constant
Bit rate : 256 kb/s
Channel(s) : 2 channels
Channel positions : Front: L R
Sampling rate : 48.0 kHz
Frame rate : 31.250 FPS (1536 SPF)
Bit depth : 16 bits
Compression mode : Lossy
Delay relative to video : 8 s 0 ms
Stream size : 195 MiB (1%)
Title : MVO - ОРТ
Language : Russian
Service kind : Complete Main
Default : No
Forced : No

Audio #6
ID : 7
Format : AC-3
Format/Info : Audio Coding 3
Format settings, Endianness : Big
Muxing mode : Header stripping
Codec ID : A_AC3
Duration : 1 h 46 min
Bit rate mode : Constant
Bit rate : 192 kb/s
Channel(s) : 2 channels
Channel positions : Front: L R
Sampling rate : 48.0 kHz
Frame rate : 31.250 FPS (1536 SPF)
Bit depth : 16 bits
Compression mode : Lossy
Delay relative to video : 8 s 0 ms
Stream size : 147 MiB (1%)
Title : MVO - НТВ
Language : Russian
Service kind : Complete Main
Default : No
Forced : No

Audio #7
ID : 8
Format : AC-3
Format/Info : Audio Coding 3
Format settings, Endianness : Big
Muxing mode : Header stripping
Codec ID : A_AC3
Duration : 1 h 46 min
Bit rate mode : Constant
Bit rate : 192 kb/s
Channel(s) : 2 channels
Channel positions : Front: L R
Sampling rate : 48.0 kHz
Frame rate : 31.250 FPS (1536 SPF)
Bit depth : 16 bits
Compression mode : Lossy
Delay relative to video : 8 s 0 ms
Stream size : 147 MiB (1%)
Title : MVO - Рен-ТВ
Language : Russian
Service kind : Complete Main
Default : No
Forced : No

Audio #8
ID : 9
Format : DTS
Format/Info : Digital Theater Systems
Mode : 16
Format settings, Endianness : Big
Muxing mode : Header stripping
Codec ID : A_DTS
Duration : 1 h 46 min
Bit rate mode : Constant
Bit rate : 1 509 kb/s
Channel(s) : 6 channels
Channel positions : Front: L C R, Side: L R, LFE
Sampling rate : 48.0 kHz
Frame rate : 93.750 FPS (512 SPF)
Bit depth : 24 bits
Compression mode : Lossy
Delay relative to video : 8 s 0 ms
Stream size : 1.12 GiB (6%)
Title : DVO - П.Гланц и И.Королёва
Language : Russian
Default : No
Forced : No

Audio #9
ID : 10
Format : AC-3
Format/Info : Audio Coding 3
Format settings, Endianness : Big
Muxing mode : Header stripping
Codec ID : A_AC3
Duration : 1 h 46 min
Bit rate mode : Constant
Bit rate : 192 kb/s
Channel(s) : 2 channels
Channel positions : Front: L R
Sampling rate : 48.0 kHz
Frame rate : 31.250 FPS (1536 SPF)
Bit depth : 16 bits
Compression mode : Lossy
Delay relative to video : 8 s 13 ms
Stream size : 147 MiB (1%)
Title : DVO - Премьер Видео Фильм
Language : Russian
Service kind : Complete Main
Default : No
Forced : No

Audio #10
ID : 11
Format : AC-3
Format/Info : Audio Coding 3
Format settings, Endianness : Big
Muxing mode : Header stripping
Codec ID : A_AC3
Duration : 1 h 46 min
Bit rate mode : Constant
Bit rate : 256 kb/s
Channel(s) : 2 channels
Channel positions : Front: L R
Sampling rate : 48.0 kHz
Frame rate : 31.250 FPS (1536 SPF)
Bit depth : 16 bits
Compression mode : Lossy
Delay relative to video : 8 s 0 ms
Stream size : 195 MiB (1%)
Title : DVO - Неизвестный
Language : Russian
Service kind : Complete Main
Default : No
Forced : No

Audio #11
ID : 12
Format : AC-3
Format/Info : Audio Coding 3
Format settings, Endianness : Big
Muxing mode : Header stripping
Codec ID : A_AC3
Duration : 1 h 46 min
Bit rate mode : Constant
Bit rate : 448 kb/s
Channel(s) : 6 channels
Channel positions : Front: L C R, Side: L R, LFE
Sampling rate : 48.0 kHz
Frame rate : 31.250 FPS (1536 SPF)
Bit depth : 16 bits
Compression mode : Lossy
Delay relative to video : 8 s 28 ms
Stream size : 342 MiB (2%)
Title : AVO - А.Гаврилов
Language : Russian
Service kind : Complete Main
Default : No
Forced : No

Audio #12
ID : 13
Format : AC-3
Format/Info : Audio Coding 3
Format settings, Endianness : Big
Muxing mode : Header stripping
Codec ID : A_AC3
Duration : 1 h 46 min
Bit rate mode : Constant
Bit rate : 192 kb/s
Channel(s) : 2 channels
Channel positions : Front: L R
Sampling rate : 48.0 kHz
Frame rate : 31.250 FPS (1536 SPF)
Bit depth : 16 bits
Compression mode : Lossy
Delay relative to video : 8 s 0 ms
Stream size : 147 MiB (1%)
Title : AVO - А.Гаврилов с VHS ранний
Language : Russian
Service kind : Complete Main
Default : No
Forced : No

Audio #13
ID : 14
Format : AC-3
Format/Info : Audio Coding 3
Format settings, Endianness : Big
Muxing mode : Header stripping
Codec ID : A_AC3
Duration : 1 h 46 min
Bit rate mode : Constant
Bit rate : 256 kb/s
Channel(s) : 2 channels
Channel positions : Front: L R
Sampling rate : 48.0 kHz
Frame rate : 31.250 FPS (1536 SPF)
Bit depth : 16 bits
Compression mode : Lossy
Delay relative to video : 8 s 0 ms
Stream size : 195 MiB (1%)
Title : AVO - Ю.Живов
Language : Russian
Service kind : Complete Main
Default : No
Forced : No

Audio #14
ID : 15
Format : AC-3
Format/Info : Audio Coding 3
Format settings, Endianness : Big
Muxing mode : Header stripping
Codec ID : A_AC3
Duration : 1 h 46 min
Bit rate mode : Constant
Bit rate : 256 kb/s
Channel(s) : 2 channels
Channel positions : Front: L R
Sampling rate : 48.0 kHz
Frame rate : 31.250 FPS (1536 SPF)
Bit depth : 16 bits
Compression mode : Lossy
Delay relative to video : 8 s 0 ms
Stream size : 195 MiB (1%)
Title : AVO - В.Горчаков
Language : Russian
Service kind : Complete Main
Default : No
Forced : No

Audio #15
ID : 16
Format : AC-3
Format/Info : Audio Coding 3
Format settings, Endianness : Big
Muxing mode : Header stripping
Codec ID : A_AC3
Duration : 1 h 46 min
Bit rate mode : Constant
Bit rate : 256 kb/s
Channel(s) : 2 channels
Channel positions : Front: L R
Sampling rate : 48.0 kHz
Frame rate : 31.250 FPS (1536 SPF)
Bit depth : 16 bits
Compression mode : Lossy
Delay relative to video : 8 s 0 ms
Stream size : 195 MiB (1%)
Title : AVO - М.Латышев
Language : Russian
Service kind : Complete Main
Default : No
Forced : No

Audio #16
ID : 17
Format : AC-3
Format/Info : Audio Coding 3
Format settings, Endianness : Big
Muxing mode : Header stripping
Codec ID : A_AC3
Duration : 1 h 46 min
Bit rate mode : Constant
Bit rate : 256 kb/s
Channel(s) : 2 channels
Channel positions : Front: L R
Sampling rate : 48.0 kHz
Frame rate : 31.250 FPS (1536 SPF)
Bit depth : 16 bits
Compression mode : Lossy
Delay relative to video : 8 s 0 ms
Stream size : 195 MiB (1%)
Title : AVO - Г.Либергал
Language : Russian
Service kind : Complete Main
Default : No
Forced : No

Audio #17
ID : 18
Format : AC-3
Format/Info : Audio Coding 3
Format settings, Endianness : Big
Muxing mode : Header stripping
Codec ID : A_AC3
Duration : 1 h 46 min
Bit rate mode : Constant
Bit rate : 256 kb/s
Channel(s) : 2 channels
Channel positions : Front: L R
Sampling rate : 48.0 kHz
Frame rate : 31.250 FPS (1536 SPF)
Bit depth : 16 bits
Compression mode : Lossy
Delay relative to video : 8 s 0 ms
Stream size : 195 MiB (1%)
Title : AVO - Б.Федоров
Language : Russian
Service kind : Complete Main
Default : No
Forced : No

Audio #18
ID : 19
Format : AC-3
Format/Info : Audio Coding 3
Format settings, Endianness : Big
Muxing mode : Header stripping
Codec ID : A_AC3
Duration : 1 h 46 min
Bit rate mode : Constant
Bit rate : 192 kb/s
Channel(s) : 2 channels
Channel positions : Front: L R
Sampling rate : 48.0 kHz
Frame rate : 31.250 FPS (1536 SPF)
Bit depth : 16 bits
Compression mode : Lossy
Delay relative to video : 8 s 0 ms
Stream size : 147 MiB (1%)
Title : AVO - В.Дохалов
Language : Russian
Service kind : Complete Main
Default : No
Forced : No

Audio #19
ID : 20
Format : DTS
Format/Info : Digital Theater Systems
Mode : 16
Format settings, Endianness : Big
Muxing mode : Header stripping
Codec ID : A_DTS
Duration : 1 h 46 min
Bit rate mode : Constant
Bit rate : 1 509 kb/s
Channel(s) : 6 channels
Channel positions : Front: L C R, Side: L R, LFE
Sampling rate : 48.0 kHz
Frame rate : 93.750 FPS (512 SPF)
Bit depth : 24 bits
Compression mode : Lossy
Delay relative to video : 8 s 0 ms
Stream size : 1.12 GiB (6%)
Title : AVO - Д.Пучков (Гоблин)
Language : Russian
Default : No
Forced : No

Audio #20
ID : 21
Format : AC-3
Format/Info : Audio Coding 3
Format settings, Endianness : Big
Muxing mode : Header stripping
Codec ID : A_AC3
Duration : 1 h 46 min
Bit rate mode : Constant
Bit rate : 384 kb/s
Channel(s) : 6 channels
Channel positions : Front: L C R, Side: L R, LFE
Sampling rate : 48.0 kHz
Frame rate : 31.250 FPS (1536 SPF)
Bit depth : 16 bits
Compression mode : Lossy
Delay relative to video : 8 s 16 ms
Stream size : 293 MiB (2%)
Title : MVO - Украинский
Language : Ukrainian
Service kind : Complete Main
Default : No
Forced : No

Audio #21
ID : 22
Format : AC-3
Format/Info : Audio Coding 3
Format settings, Endianness : Big
Muxing mode : Header stripping
Codec ID : A_AC3
Duration : 1 h 46 min
Bit rate mode : Constant
Bit rate : 384 kb/s
Channel(s) : 6 channels
Channel positions : Front: L C R, Side: L R, LFE
Sampling rate : 48.0 kHz
Frame rate : 31.250 FPS (1536 SPF)
Bit depth : 16 bits
Compression mode : Lossy
Delay relative to video : 8 s 14 ms
Stream size : 293 MiB (2%)
Title : MVO - Украинский
Language : Ukrainian
Service kind : Complete Main
Default : No
Forced : No

Audio #22
ID : 23
Format : DTS
Format/Info : Digital Theater Systems
Mode : 16
Format settings, Endianness : Big
Muxing mode : Header stripping
Codec ID : A_DTS
Duration : 1 h 46 min
Bit rate mode : Constant
Bit rate : 1 509 kb/s
Channel(s) : 6 channels
Channel positions : Front: L C R, Side: L R, LFE
Sampling rate : 48.0 kHz
Frame rate : 93.750 FPS (512 SPF)
Bit depth : 24 bits
Compression mode : Lossy
Delay relative to video : 8 s 0 ms
Stream size : 1.12 GiB (6%)
Title : English
Language : English
Default : No
Forced : No

Text #1
ID : 24
Format : UTF-8
Codec ID : S_TEXT/UTF8
Codec ID/Info : UTF-8 Plain Text
Title : Русский Full
Language : Russian
Default : No
Forced : No

Text #2
ID : 25
Format : UTF-8
Codec ID : S_TEXT/UTF8
Codec ID/Info : UTF-8 Plain Text
Title : English Full
Language : English
Default : No
Forced : No



_________________
Проголосуй за трекер Открытый торрент трекер - RUS-MEDIA.ORG

Проголосуй Открытый торрент трекер - RUS-MEDIA.ORG


Вернуться к началу
 Профиль Отправить личное сообщение  
 
   Похожие торренты   Автор   Торрент   Размер 
В этой теме нет новых непрочитанных сообщений. Хищник / Predator [фантастика, боевик, 1987] WEB-DLRip-AVC, Dub [Open Matte]

salma3

7 | 1

3.29 ГБ

В этой теме нет новых непрочитанных сообщений. Хищник / Predator [фантастика, боевик, 1987] WEB-DLRip-AVC, Dub [Open Matte]

salma3

17 | 0

2.36 ГБ

В этой теме нет новых непрочитанных сообщений. Хищник / Predator [Фантастика, боевик, приключения, 1987] BDRemux 1080p, Dub

salma3

0 | 0

32.53 ГБ

В этой теме нет новых непрочитанных сообщений. Хищник / Predator [фантастика, боевик, триллер, 1987] BDRip 1080p, Dub+Mvo+Dvo+Avo+Sub

salma3

65 | 24

12.38 ГБ

В этой теме нет новых непрочитанных сообщений. Хищник / Predator [фантастика, боевик, приключения, 1987] BDRip-AVC, Dub+Mvo+Avo+Sub

salma3

103 | 58

2.18 ГБ

В этой теме нет новых непрочитанных сообщений. Чужой против Хищника / Alien vs. Predator [Фантастика, боевик, приключения, 2004] WEB-DLRip-AVC, Dub [Open Matte]

salma3

0 | 0

3.61 ГБ

В этой теме нет новых непрочитанных сообщений. Чужой против Хищника / AVP: Alien vs. Predator [Фантастика, боевик, триллер, 2004] WEB-DLRip-AVC, Dub [Open Matte] [Theatrical Cut]

salma3

0 | 0

745.69 МБ


Начать новую тему Ответить на тему  [ 1 сообщение ] 




Для Мосгорсуда, Роскомнадзора и рекламодателей:: mosgorsud-torrent[собачка]yandex.ru
cron