Торрент файл
скачать торрент магнет ссылка Добавлен: 22 дек 2017, 14:18
Размер: 4.37 ГБ
Сидеров: 64
Личеров: 2
Статус: (salma3)
Автор

СообщениеДобавлено: 22 дек 2017, 14:18 

Не в сети
Супермодератор
Аватара пользователя
Дата регистрации:
15 фев 2012, 16:44
Возраст: 28
Спасибо: 7205 / 2147
Сообщения: 65324
Год выхода: 2013
Жанр: ужасы, мелодрама, комедия
Режиссер: Джонатан Левин

В ролях: Николас Холт, Тереза Палмер, Анали Типтон, Роб Кордри, Дэйв Франко, Джон Малкович, Кори Хардрикт, Дэниэл Риндресс-Кей, Винсент Леклерк, Клиффорд ЛеДюк-Вайанкур

О фильме: Мир поражен чумой и стоит на грани вымирания. Покойники ходят по земле и норовят употребить в пищу живых, которые, оставшись в катастрофическом меньшинстве, с трудом держат оборону. Перемены начинаются, когда один зомби, чье имя при жизни начиналось на «Р», спасает девушку вместо того, чтобы ее съесть. Дружба, завязавшаяся между представителями враждующих сторон, грозит обоим самыми нехорошими последствиями. Но Р и Джули, сами того не подозревая, держат в руках простой и единственный ключ к спасению гибнущего мира.



Выпущено: Summit Entertainment
Продолжительность: 01:37:46
Перевод: Дублированный [НТВ+]

Файл
Кодек: x264
Качество: BDRip 720p
Видео: 1280x720 (16:9), 23.976 fps, 5500 kbps
Аудио #1: AC-3, 6 ch, 448 kbps (Rus)
Аудио #2: AC-3, 6 ch, 448 kbps (Eng)
Субтитры: Русские, Английские
Скачать: сэмпл

Общее
Уникальный идентификатор : 216033789289020010263795645608932885138 (0xA28698293AD347F9BC6C2BD6A5874292)
Полное имя : Warm.Bodies.2013.BDRip.720p.Rus.Eng.mkv
Формат : Matroska
Версия формата : Version 2
Размер файла : 4,37 Гбайт
Продолжительность : 1 ч. 37 м.
Общий поток : 6401 Кбит/сек
Название фильма : Тепло наших тел / Warm Bodies (2013)
Дата кодирования : UTC 2013-10-23 17:22:09
Программа кодирования : mkvmerge v5.8.0 ('No Sleep / Pillow') built on Sep 2 2012 15:37:04
Библиотека кодирования : libebml v1.2.3 + libmatroska v1.3.0

Видео
Идентификатор : 1
Формат : AVC
Формат/Информация : Advanced Video Codec
Профиль формата : High@L4.1
Параметр CABAC формата : Да
Параметр ReFrames формата : 9 кадров
Идентификатор кодека : V_MPEG4/ISO/AVC
Продолжительность : 1 ч. 37 м.
Битрейт : 5505 Кбит/сек
Ширина : 1280 пикселей
Высота : 720 пикселей
Соотношение сторон : 16:9
Частота кадров : 23,976 кадра/сек
Цветовое пространство : YUV
Субдискретизация насыщенности : 4:2:0
Битовая глубина : 8 бит
Тип развёртки : Прогрессивная
Бит/(Пиксели*Кадры) : 0.249
Размер потока : 3,67 Гбайт (84%)
Заголовок : Release by AlexKa
Библиотека кодирования : x264 core 138 r2358 9e941d1
Настройки программы : cabac=1 / ref=9 / deblock=1:-3:-3 / analyse=0x3:0x133 / me=umh / subme=11 / psy=1 / psy_rd=1.00:0.00 / mixed_ref=1 / me_range=32 / chroma_me=1 / trellis=2 / 8x8dct=1 / cqm=0 / deadzone=21,11 / fast_pskip=0 / chroma_qp_offset=-2 / threads=12 / lookahead_threads=2 / sliced_threads=0 / nr=0 / decimate=0 / interlaced=0 / bluray_compat=0 / constrained_intra=0 / bframes=8 / b_pyramid=2 / b_adapt=2 / b_bias=0 / direct=3 / weightb=1 / open_gop=0 / weightp=2 / keyint=240 / keyint_min=23 / scenecut=40 / intra_refresh=0 / rc=2pass / mbtree=0 / bitrate=5505 / ratetol=1.0 / qcomp=0.60 / qpmin=0 / qpmax=69 / qpstep=4 / cplxblur=20.0 / qblur=0.5 / ip_ratio=1.40 / pb_ratio=1.30 / aq=1:0.80
Язык : English

Аудио #1
Идентификатор : 2
Формат : AC-3
Формат/Информация : Audio Coding 3
Расширение режима : CM (complete main)
Идентификатор кодека : A_AC3
Продолжительность : 1 ч. 37 м.
Вид битрейта : Постоянный
Битрейт : 448 Кбит/сек
Каналы : 6 каналов
Расположение каналов : Front: L C R, Side: L R, LFE
Частота : 48,0 КГц
Битовая глубина : 16 бит
Метод сжатия : С потерями
Размер потока : 313 Мбайт (7%)
Заголовок : Rus
Язык : Russian

Аудио #2
Идентификатор : 3
Формат : AC-3
Формат/Информация : Audio Coding 3
Расширение режима : CM (complete main)
Идентификатор кодека : A_AC3
Продолжительность : 1 ч. 37 м.
Вид битрейта : Постоянный
Битрейт : 448 Кбит/сек
Каналы : 6 каналов
Расположение каналов : Front: L C R, Side: L R, LFE
Частота : 48,0 КГц
Битовая глубина : 16 бит
Метод сжатия : С потерями
Размер потока : 313 Мбайт (7%)
Заголовок : Eng
Язык : English

Текст #1
Идентификатор : 4
Формат : UTF-8
Идентификатор кодека : S_TEXT/UTF8
Идентификатор кодека/Информация : UTF-8 Plain Text
Заголовок : Rus
Язык : Russian

Текст #2
Идентификатор : 5
Формат : UTF-8
Идентификатор кодека : S_TEXT/UTF8
Идентификатор кодека/Информация : UTF-8 Plain Text
Заголовок : Eng
Язык : English

Меню
00:00:00.000 : :Chapter 01
00:06:39.857 : :Chapter 02
00:12:24.201 : :Chapter 03
00:19:24.580 : :Chapter 04
00:24:22.919 : :Chapter 05
00:31:17.625 : :Chapter 06
00:40:52.408 : :Chapter 07
00:45:32.563 : :Chapter 08
00:49:56.284 : :Chapter 09
00:55:44.090 : :Chapter 10
01:02:25.491 : :Chapter 11
01:08:49.875 : :Chapter 12
01:14:08.861 : :Chapter 13
01:17:27.392 : :Chapter 14
01:24:00.702 : :Chapter 15
01:30:30.758 : :Chapter 16
x264 [info]: frame I:1215 Avg QP:14.93 size:131549
x264 [info]: frame P:27953 Avg QP:17.97 size: 57535
x264 [info]: frame B:111472 Avg QP:19.90 size: 20332
x264 [info]: consecutive B-frames: 1.9% 1.3% 5.9% 12.7% 11.1% 57.5% 3.9% 1.2% 4.4%


_________________
Проголосуй за трекер Открытый торрент трекер - RUS-MEDIA.ORG

Проголосуй Открытый торрент трекер - RUS-MEDIA.ORG


Вернуться к началу
 Профиль Отправить личное сообщение  
 
   Похожие торренты   Автор   Торрент   Размер 
В этой теме нет новых непрочитанных сообщений. Титаник / Titanic [Драма, катастрофа, мелодрама, 1997] BDRip-HEVC 720p, Dub [Open Matte] [60 fps]

salma3

0 | 0

7.82 ГБ

В этой теме нет новых непрочитанных сообщений. Белый плен / Eight Below [Мелодрама, Драма, Приключения, 2006] HDTVRip 720p, Dub [Open Matte]

salma3

75 | 20

4.37 ГБ

В этой теме нет новых непрочитанных сообщений. Сделка с дьяволом / The Covenant [ужасы, фэнтези, боевик, триллер, 2006] WEBRip 720p, Dub [Open Matte]

salma3

0 | 44

4.37 ГБ

В этой теме нет новых непрочитанных сообщений. Подъем с глубины / Deep Rising [ужасы, фантастика, боевик, 1998] WEB-DLRip 720p, Mvo [Open Matte]

salma3

0 | 0

5.42 ГБ

В этой теме нет новых непрочитанных сообщений. Одиночка / A Man Apart [Боевик, триллер, драма, 2003] BDRip 720p, Dub [Open Matte]

salma3

0 | 1

7.76 ГБ

В этой теме нет новых непрочитанных сообщений. Схватка / The Grey [Боевик, триллер, драма, 2011] BDRip 720p, Dub [Open Matte]

salma3

13 | 1

5.26 ГБ

В этой теме нет новых непрочитанных сообщений. Лучший стрелок / Top Gun [боевик, драма, мелодрама, 1986] BDRip-HEVC 1080p, Mvo [Open Matte]

salma3

11 | 2

5.77 ГБ


Начать новую тему Ответить на тему  [ 1 сообщение ] 




Для Мосгорсуда, Роскомнадзора и рекламодателей:: mosgorsud-torrent[собачка]yandex.ru
cron