Торрент файл
скачать торрент магнет ссылка Добавлен: 20 дек 2017, 21:55
Размер: 4.17 ГБ
Сидеров: 20
Личеров: 7
Статус: (salma3)
Автор

СообщениеДобавлено: 20 дек 2017, 21:55 

Не в сети
Супермодератор
Аватара пользователя
Дата регистрации:
15 фев 2012, 16:44
Возраст: 28
Спасибо: 6925 / 2147
Сообщения: 52870
Год выхода: 1993
Жанр: боевик, комедия, мелодрама
Страна: США
Студия: Walt Disney Pictures, Vienna Film Financing Fund, One for All Productions Inc
Продолжительность: 01:45:29
Перевод: Профессиональный многоголосый, профессиональный двухголосый, авторский одноголосый
Режиссер: Стивен Херек / Stephen Herek
В ролях: Чарли Шин, Кифер Сазерленд, Крис О'Доннелл, Оливер Платт, Тим Карри, Ребекка Де Морнэй, Габриэлла Анвар

О фильме
Настоящая любовь и опасные приключения, о которых другие только мечтают, стали буднями для трех мушкетеров. Эти истинные рыцари без страха и упрека не признают никаких законов, кроме закона чести. Их нельзя поставить на колени, потому что они преклоняются только перед отвагой и мужеством.



Файл
Качество: WEB-DL 720p
Видео: MPEG-4 AVC, 1280x542 (2.35:1), 3949 kbps, 23.976 fps, 0.237 bpp
Аудио 1: Russian: 48 kHz, AC3, 2.0 ch, 192 kbps |MVO, ОРТ|
Аудио 2: Russian: 48 kHz, AC3, 2.0 ch, 192 kbps |DVO, НТВ+|
Аудио 3: Russian: 48 kHz, AC3, 5.1 ch, 448 kbps |AVO, А. Гаврилов|
Аудио 4: Russian: 48 kHz, AC3, 2.0 ch, 192 kbps |AVO, В. Горчаков|
Аудио 5: Russian: 48 kHz, AC3, 2.0 ch, 192 kbps |AVO, Л. Володарский|
Аудио 6: English: 48 kHz, AC3, 5.1 ch, 384 kbps |Оригинал|
Субтитры: Английские
Навигация по главам: есть


General
Unique ID : 173733516112948078732467279029575202836 (0x82B3DBAC9C03B202ACEC28026381B814)
Complete name : The.Three.Musketeers.1993.WEB-DL.720p.mkv
Format : Matroska
Format version : Version 2
File size : 4.17 GiB
Duration : 1 h 45 min
Overall bit rate : 5 662 kb/s
Movie name : The Three Musketeers (1993)
Encoded date : UTC 2017-12-20 16:39:49
Writing application : mkvmerge v5.8.0 ('No Sleep / Pillow') built on Sep 2 2012 15:37:04
Writing library : libebml v1.2.3 + libmatroska v1.3.0
Cover : Yes
Attachments : cover_land.jpg / small_cover.jpg / small_cover_land.jpg / cover.jpg

Video
ID : 1
Format : AVC
Format/Info : Advanced Video Codec
Format profile : Main@L3.1
Format settings, CABAC : No
Format settings, RefFrames : 2 frames
Codec ID : V_MPEG4/ISO/AVC
Duration : 1 h 45 min
Bit rate : 3 949 kb/s
Width : 1 280 pixels
Height : 542 pixels
Display aspect ratio : 2.35:1
Frame rate mode : Constant
Frame rate : 23.976 (24000/1001) FPS
Color space : YUV
Chroma subsampling : 4:2:0
Bit depth : 8 bits
Scan type : Progressive
Bits/(Pixel*Frame) : 0.237
Stream size : 2.91 GiB (70%)
Title : The Three Musketeers (1993)
Language : English
Default : Yes
Forced : No
Color range : Limited
Color primaries : BT.709
Transfer characteristics : BT.709
Matrix coefficients : BT.709

Audio #1
ID : 2
Format : AC-3
Format/Info : Audio Coding 3
Format settings, Endianness : Big
Codec ID : A_AC3
Duration : 1 h 45 min
Bit rate mode : Constant
Bit rate : 192 kb/s
Channel(s) : 2 channels
Channel positions : Front: L R
Sampling rate : 48.0 kHz
Frame rate : 31.250 FPS (1536 SPF)
Bit depth : 16 bits
Compression mode : Lossy
Stream size : 145 MiB (3%)
Title : MVO, ОРТ
Language : Russian
Service kind : Complete Main
Default : Yes
Forced : No

Audio #2
ID : 3
Format : AC-3
Format/Info : Audio Coding 3
Format settings, Endianness : Big
Codec ID : A_AC3
Duration : 1 h 45 min
Bit rate mode : Constant
Bit rate : 192 kb/s
Channel(s) : 2 channels
Channel positions : Front: L R
Sampling rate : 48.0 kHz
Frame rate : 31.250 FPS (1536 SPF)
Bit depth : 16 bits
Compression mode : Lossy
Stream size : 145 MiB (3%)
Title : DVO, НТВ+
Language : Russian
Service kind : Complete Main
Default : No
Forced : No

Audio #3
ID : 4
Format : AC-3
Format/Info : Audio Coding 3
Format settings, Endianness : Big
Codec ID : A_AC3
Duration : 1 h 45 min
Bit rate mode : Constant
Bit rate : 448 kb/s
Channel(s) : 6 channels
Channel positions : Front: L C R, Side: L R, LFE
Sampling rate : 48.0 kHz
Frame rate : 31.250 FPS (1536 SPF)
Bit depth : 16 bits
Compression mode : Lossy
Stream size : 338 MiB (8%)
Title : AVO, А. Гаврилов
Language : Russian
Service kind : Complete Main
Default : No
Forced : No

Audio #4
ID : 5
Format : AC-3
Format/Info : Audio Coding 3
Format settings, Endianness : Big
Codec ID : A_AC3
Duration : 1 h 45 min
Bit rate mode : Constant
Bit rate : 192 kb/s
Channel(s) : 2 channels
Channel positions : Front: L R
Sampling rate : 48.0 kHz
Frame rate : 31.250 FPS (1536 SPF)
Bit depth : 16 bits
Compression mode : Lossy
Stream size : 145 MiB (3%)
Title : AVO, В. Горчаков
Language : Russian
Service kind : Complete Main
Default : No
Forced : No

Audio #5
ID : 6
Format : AC-3
Format/Info : Audio Coding 3
Format settings, Endianness : Big
Codec ID : A_AC3
Duration : 1 h 45 min
Bit rate mode : Constant
Bit rate : 192 kb/s
Channel(s) : 2 channels
Channel positions : Front: L R
Sampling rate : 48.0 kHz
Frame rate : 31.250 FPS (1536 SPF)
Bit depth : 16 bits
Compression mode : Lossy
Stream size : 145 MiB (3%)
Title : AVO, Л. Володарский
Language : Russian
Service kind : Complete Main
Default : No
Forced : No

Audio #6
ID : 7
Format : AC-3
Format/Info : Audio Coding 3
Format settings, Endianness : Big
Codec ID : A_AC3
Duration : 1 h 45 min
Bit rate mode : Constant
Bit rate : 384 kb/s
Channel(s) : 6 channels
Channel positions : Front: L C R, Side: L R, LFE
Sampling rate : 48.0 kHz
Frame rate : 31.250 FPS (1536 SPF)
Bit depth : 16 bits
Compression mode : Lossy
Stream size : 290 MiB (7%)
Title : Оригинал
Language : English
Service kind : Complete Main
Default : No
Forced : No

Text
ID : 8
Format : UTF-8
Codec ID : S_TEXT/UTF8
Codec ID/Info : UTF-8 Plain Text
Language : English
Default : No
Forced : No

Menu
00:00:00.000 : en:Program Start
00:07:50.000 : en:Musketeers Disbanded
00:11:32.000 : en:D'Artagnan Meets Constance
00:22:53.000 : en:Porthos Brings Down the House
00:25:07.000 : en:The Heart of a Musketeer
00:34:51.000 : en:Milady De Winter & Richelieu
00:39:07.000 : en:In the Nick of Time
00:48:18.000 : en:The Manly Art of Wenching
00:55:40.000 : en:In Queen Anne's Chambers
01:02:23.000 : en:Troubling Rumors
01:05:19.000 : en:Seduction
01:13:33.000 : en:Sabine and Athos
01:15:29.000 : en:Forgiveness
01:19:59.000 : en:Assassin's Attempt
01:23:29.000 : en:Save the King
01:33:16.000 : en:Avenging His Father's Death
01:36:34.000 : en:A Surprise for Richelieu
01:37:44.000 : en:The Fourth Musketeer!
01:40:50.000 : en:End Credits


_________________
Проголосуй за трекер Открытый торрент трекер - RUS-MEDIA.ORG

Проголосуй Открытый торрент трекер - RUS-MEDIA.ORG



реклама партнёра


Вернуться к началу
 Профиль Отправить личное сообщение  
 
   Похожие торренты   Автор   Торрент   Размер 
В этой теме нет новых непрочитанных сообщений. Три мушкетера. Микки, Дональд, Гуфи / Mickey, Donald, Goofy: The Three Musketeers [мультфильм, мелодрама, комедия, приключения, семейный, 2004] BDRip 1080p, Dub

salma3

45 | 31

6.47 ГБ

В этой теме нет новых непрочитанных сообщений. Зорро и три мушкетера / Zorro e i tre moschettieri [боевик, драма, мелодрама, комедия, приключения, 1963] DVDRip, Avo+Sub

salma3

18 | 2

1.47 ГБ

В этой теме нет новых непрочитанных сообщений. Зятек / Son in Law [драма, мелодрама, комедия, 1993] WEB-DL 720p, Mvo+Sub

salma3

47 | 11

3.19 ГБ

В этой теме нет новых непрочитанных сообщений. Консьерж / For Love or Money [драма, мелодрама, комедия, 1993] BDRip 720p, Dub

salma3

14 | 6

4.71 ГБ

В этой теме нет новых непрочитанных сообщений. Ночь, в которую мы никогда не встретимся / The Night We Never Met [мелодрама, комедия, 1993] WEB-DL 720p, Dvo

salma3

71 | 29

3.19 ГБ

В этой теме нет новых непрочитанных сообщений. Неспящие в Сиэтле / Sleepless in Seattle [Драма, мелодрама, комедия, 1993] BDRip 720p, Dub

salma3

7 | 7

6.11 ГБ

В этой теме нет новых непрочитанных сообщений. Сердце и души / Heart and Souls [фэнтези, драма, мелодрама, комедия, 1993] WEB-DL 720p, Mvo

salma3

41 | 4

3.26 ГБ


Начать новую тему Ответить на тему  [ 1 сообщение ] 




Для Мосгорсуда, Роскомнадзора и рекламодателей:: mosgorsud-torrent[собачка]yandex.ru
cron