Торрент файл
скачать торрент магнет ссылка Добавлен: 19 дек 2017, 13:07
Размер: 53.46 ГБ
Сидеров: 14
Личеров: 9
Статус: (salma3)
Автор

СообщениеДобавлено: 19 дек 2017, 13:07 

Не в сети
Супермодератор
Аватара пользователя
Дата регистрации:
15 фев 2012, 16:44
Возраст: 29
Спасибо: 7328 / 2147
Сообщения: 73373
Год выхода: 2013
Жанр: Фантастика, боевик, приключения
Режиссер: Гэвин Худ

В ролях: Харрисон Форд, Бен Кингсли, Эйса Баттерфилд, Эбигейл Бреслин, Хейли Стайнфелд, Виола Дэвис, Мойзес Ариас, Нонсо Анози, Арамис Найт, Брэндон Су Ху

О фильме:
Земля была дважды разорена инопланетной расой, которая решила уничтожить человечество. Семьдесят лет спустя люди Земли объединяются, чтобы не допустить их собственного истребления. Эндер Виггин — тихий, но невероятно способный мальчик, который может стать спасителем человеческой расы. Его отправляют в специальную школу, размещенную на орбите Земли, где его превратят в убийцу, способного противостоять инопланетному вторжению… Экранизация по произведению: Орсон Скотт Кард.



Страна: США
Продолжительность: 01:53:48
Перевод(ы): Дублированный
#2: Дублированный | ТНТ
#3: Авторский | Гаврилов
#4: Авторский | Горчаков

Файл
Качество: BDRemux 2160p
Видео: MPEG-H HEVC HDR Video, 3840x2160, 60.0 Mbit/s, 23.976 fps
Звук:
Аудио #01: 48 kHz, AC3, 5.1, 384 Kbps | Дублированный | RUS |
Аудио #02: 48 kHz, AC3, 2.0, 192 Kbps | Дублированный | RUS |
Аудио #03: 48 kHz, AC3, 5.1, 640 Kbps | Авторский | RUS |
Аудио #04: 48 kHz, AC3, 5.1, 640 Kbps | Авторский | RUS |
Аудио #05: 48 kHz, TrueHD, 7.1, 4673 Kbps | Оригинал | ENG |
Аудио #06: 48 kHz, AC3, 5.1, 640 Kbps | Оригинал | ENG |
Субтитры: Русские (full), английские

General
Unique ID : 266937169494511044421758922093673277426 (0xC8D23A92A21904BF8D5BA0CE678B67F2)
Complete name : G:VideoSSDEnder's.Game.2013.BDREMUX.2160p.4K.UltraHD.HEVC.HDR.ExKinoRay.mkv
Format : Matroska
Format version : Version 4 / Version 2
File size : 53.5 GiB
Duration : 1 h 53 min
Overall bit rate mode : Variable
Overall bit rate : 67.2 Mb/s
Movie name : Ender's Game 2013 from ExKinoRay
Encoded date : UTC 2017-12-19 01:05:57
Writing application : mkvmerge v19.0.0 ('Brave Captain') 64-bit
Writing library : libebml v1.3.5 + libmatroska v1.4.8

Video
ID : 1
Format : HEVC
Format/Info : High Efficiency Video Coding
Format profile : Main 10@L5.1@High
Codec ID : V_MPEGH/ISO/HEVC
Duration : 1 h 53 min
Bit rate : 60.0 Mb/s
Width : 3 840 pixels
Height : 2 160 pixels
Display aspect ratio : 16:9
Frame rate mode : Constant
Frame rate : 23.976 (24000/1001) FPS
Color space : YUV
Chroma subsampling : 4:2:0 (Type 2)
Bit depth : 10 bits
Bits/(Pixel*Frame) : 0.302
Stream size : 47.7 GiB (89%)
Writing library : ATEME Titan KFE 3.7.3 (4.7.3.1003)
Language : English
Default : Yes
Forced : No
Color range : Limited
Color primaries : BT.2020
Transfer characteristics : PQ
Matrix coefficients : BT.2020 non-constant
Mastering display color pri : R: x=0.680000 y=0.320000, G: x=0.265000 y=0.690000, B: x=0.150000 y=0.060000, White point: x=0.312700 y=0.329000
Mastering display luminance : min: 0.0050 cd/m2, max: 4000.0000 cd/m2

Audio #1
ID : 2
Format : AC-3
Format/Info : Audio Coding 3
Codec ID : A_AC3
Duration : 1 h 53 min
Bit rate mode : Constant
Bit rate : 384 kb/s
Channel(s) : 6 channels
Channel positions : Front: L C R, Side: L R, LFE
Sampling rate : 48.0 kHz
Frame rate : 31.250 FPS (1536 SPF)
Bit depth : 16 bits
Compression mode : Lossy
Stream size : 313 MiB (1%)
Title : Dub
Language : Russian
Service kind : Complete Main
Default : Yes
Forced : No

Audio #2
ID : 3
Format : AC-3
Format/Info : Audio Coding 3
Codec ID : A_AC3
Duration : 1 h 53 min
Bit rate mode : Constant
Bit rate : 192 kb/s
Channel(s) : 2 channels
Channel positions : Front: L R
Sampling rate : 48.0 kHz
Frame rate : 31.250 FPS (1536 SPF)
Bit depth : 16 bits
Compression mode : Lossy
Stream size : 156 MiB (0%)
Title : THT
Language : Russian
Service kind : Complete Main
Default : No
Forced : No

Audio #3
ID : 4
Format : AC-3
Format/Info : Audio Coding 3
Codec ID : A_AC3
Duration : 1 h 53 min
Bit rate mode : Constant
Bit rate : 640 kb/s
Channel(s) : 6 channels
Channel positions : Front: L C R, Side: L R, LFE
Sampling rate : 48.0 kHz
Frame rate : 31.250 FPS (1536 SPF)
Bit depth : 16 bits
Compression mode : Lossy
Stream size : 521 MiB (1%)
Title : AVO [Gavrilov]
Language : Russian
Service kind : Complete Main
Default : No
Forced : No

Audio #4
ID : 5
Format : AC-3
Format/Info : Audio Coding 3
Codec ID : A_AC3
Duration : 1 h 53 min
Bit rate mode : Constant
Bit rate : 640 kb/s
Channel(s) : 6 channels
Channel positions : Front: L C R, Side: L R, LFE
Sampling rate : 48.0 kHz
Frame rate : 31.250 FPS (1536 SPF)
Bit depth : 16 bits
Compression mode : Lossy
Stream size : 521 MiB (1%)
Title : AVO [Gorchakov]
Language : Russian
Service kind : Complete Main
Default : No
Forced : No

Audio #5
ID : 6
Format : TrueHD
Format profile : TrueHD+Atmos / TrueHD
Codec ID : A_TRUEHD
Duration : 1 h 53 min
Bit rate mode : Variable
Bit rate : 4 673 kb/s
Maximum bit rate : 8 028 kb/s
Channel(s) : Object Based / 8 channels
Channel positions : Object Based / Front: L C R, Side: L R, Back: L R, LFE
Sampling rate : / 48.0 kHz
Frame rate : 1 200.000 FPS (40 SPF)
Compression mode : Lossless
Stream size : 3.72 GiB (7%)
Title : Original
Language : English
Default : No
Forced : No

Audio #6
ID : 7
Format : AC-3
Format/Info : Audio Coding 3
Codec ID : A_AC3
Duration : 1 h 53 min
Bit rate mode : Constant
Bit rate : 640 kb/s
Channel(s) : 6 channels
Channel positions : Front: L C R, Side: L R, LFE
Sampling rate : 48.0 kHz
Frame rate : 31.250 FPS (1536 SPF)
Bit depth : 16 bits
Compression mode : Lossy
Stream size : 522 MiB (1%)
Language : English
Service kind : Complete Main
Default : No
Forced : No

Text #1
ID : 8
Format : UTF-8
Codec ID : S_TEXT/UTF8
Codec ID/Info : UTF-8 Plain Text
Duration : 1 h 44 min
Bit rate : 83 b/s
Count of elements : 1286
Stream size : 63.8 KiB (0%)
Title : Full [Voronin]
Language : Russian
Default : No
Forced : No

Text #2
ID : 9
Format : UTF-8
Codec ID : S_TEXT/UTF8
Codec ID/Info : UTF-8 Plain Text
Duration : 1 h 44 min
Bit rate : 55 b/s
Count of elements : 1473
Stream size : 42.3 KiB (0%)
Title : Full
Language : English
Default : No
Forced : No

Text #3
ID : 10
Format : UTF-8
Codec ID : S_TEXT/UTF8
Codec ID/Info : UTF-8 Plain Text
Duration : 1 h 44 min
Bit rate : 60 b/s
Count of elements : 1646
Stream size : 46.1 KiB (0%)
Title : SDH
Language : English
Default : No
Forced : No

Menu
00:00:00.000 : en:Chapter 1
00:06:11.580 : en:Chapter 2
00:14:16.314 : en:Chapter 3
00:19:07.146 : en:Chapter 4
00:28:08.145 : en:Chapter 5
00:33:23.668 : en:Chapter 6
00:39:35.665 : en:Chapter 7
00:45:44.408 : en:Chapter 8
00:53:38.715 : en:Chapter 9
01:02:16.608 : en:Chapter 10
01:09:22.950 : en:Chapter 11
01:15:17.888 : en:Chapter 12
01:23:39.306 : en:Chapter 13
01:30:55.825 : en:Chapter 14
01:35:44.280 : en:Chapter 15
01:41:13.859 : en:Chapter 16


Релиз от: Автор релиза:


_________________
Проголосуй за трекер Открытый торрент трекер - RUS-MEDIA.ORG

Проголосуй Открытый торрент трекер - RUS-MEDIA.ORG


Вернуться к началу
 Профиль Отправить личное сообщение  
 
   Похожие торренты   Автор   Торрент   Размер 
В этой теме нет новых непрочитанных сообщений. Железный человек 3 / Iron Man 3 [фантастика, боевик, приключения, 2013] UHD BDRemux 2160p, Dub [4K]

salma3

10 | 15

68.28 ГБ

В этой теме нет новых непрочитанных сообщений. Игра окончена, чувак! / Game Over, Man! [Боевик, комедия, 2018] WEBRip 2160p, Mvo [BaibaKo]

salma3

0 | 0

18.17 ГБ

В этой теме нет новых непрочитанных сообщений. Игра окончена, чувак! / Game Over, Man! [Боевик, комедия, 2018] WEBRip 2160p, Mvo [BaibaKo]

salma3

0 | 0

22 ГБ

В этой теме нет новых непрочитанных сообщений. Шерлок Холмс: Игра теней / Sherlock Holmes: A Game of Shadows [Боевик, триллер, криминал, 2011] WEB-DL 2160p, Dub

salma3

4 | 18

35.49 ГБ

В этой теме нет новых непрочитанных сообщений. Честная игра / Fair Game [боевик, ужасы, триллер, 1986] BDRemux 1080p, Dvo [НТВ+]

salma3

0 | 0

16.46 ГБ

В этой теме нет новых непрочитанных сообщений. Тихоокеанский рубеж / Pacific Rim [Фантастика, фэнтези, боевик, 2013] BDRemux 2160p, Dub [4K]

salma3

0 | 1

79.02 ГБ

В этой теме нет новых непрочитанных сообщений. Железный человек / Iron Man [фантастика, боевик, приключения, 2008] UHD BDRemux 2160p, Dub [4K]

salma3

12 | 8

64.43 ГБ


Начать новую тему Ответить на тему  [ 1 сообщение ] 




Для Мосгорсуда, Роскомнадзора и рекламодателей:: mosgorsud-torrent[собачка]yandex.ru
cron