Торрент файл
скачать торрент магнет ссылка Добавлен: 18 дек 2017, 15:52
Размер: 9.46 ГБ
Сидеров: 28
Личеров: 12
Статус: (salma3)
Автор

СообщениеДобавлено: 18 дек 2017, 15:52 

Не в сети
Супермодератор
Аватара пользователя
Дата регистрации:
15 фев 2012, 16:44
Возраст: 28
Спасибо: 7290 / 2147
Сообщения: 70756
Год выхода: 1948
Жанр: драма, военный, биография, история
Режиссер: Виктор Флеминг

В ролях: Ингрид Бергман, Френсис Л. Салливан, Дж. Кэролл Нейш, Уорд Бонд, Шепперд Страдвик, Джин Локхарт, Джон Эмери, Лейф Эриксон, Сесил Келлауэй, Хосе Феррер

Описание: В Северной Франции, истерзанной постоянными междоусобными войнами с бургундцами и многолетней войной с англичанами, в простой крестьянской семье Жака д`Арка родилась дочь Жанна. В возрасте 12-ти лет Жанна впервые познала божественный свет, и голос промолвил, что Богом на неё возложена миссия спасти Францию и изгнать англичан. Весной 1429 года девушка добралась до крепости на Луаре и добилась встречи с королем. Владыка поверил юной деве и поставил ее во главе отряда рыцарей. Рыцари Жанны Де Арк освобождали одну область Франции за другой…



Страна: США
Продолжительность: 02:25:50
Перевод: Профессиональный (двухголосый закадровый) Светла

Файл
Качество: BDRip 720p
Видео: 960x720 (4:3); 8000 Kbps; 23.976 fps; 0.483 bpp
Аудио 1: Russian; AC3; 48.0 KHz; 2ch; 640 Kbps
Аудио 2: English; AC3; 48.0 KHz; 2ch; 640 Kbps

Format : Matroska
Format version : Version 4 / Version 2
File size : 9.46 GiB
Duration : 2 h 25 min
Overall bit rate : 9 283 kb/s
Encoded date : UTC 2016-11-07 10:57:26
Writing application : mkvmerge v8.3.0 ('Over the Horizon') 64bit
Writing library : libebml v1.3.1 + libmatroska v1.4.2
Attachments : poster.jpg

Video
ID : 1
Format : AVC
Format/Info : Advanced Video Codec
Format profile : High@L4.1
Format settings, CABAC : Yes
Format settings, ReFrames : 12 frames
Codec ID : V_MPEG4/ISO/AVC
Duration : 2 h 25 min
Bit rate : 8 000 kb/s
Width : 960 pixels
Height : 720 pixels
Display aspect ratio : 4:3
Frame rate mode : Constant
Frame rate : 23.976 (24000/1001) FPS
Color space : YUV
Chroma subsampling : 4:2:0
Bit depth : 8 bits
Scan type : Progressive
Bits/(Pixel*Frame) : 0.483
Stream size : 8.15 GiB (86%)
Writing library : x264 core 148 r2638 7599210
Encoding settings : cabac=1 / ref=12 / deblock=1:-3:-3 / analyse=0x3:0x133 / me=umh / subme=11 / psy=1 / psy_rd=1.00:0.50 / mixed_ref=1 / me_range=32 / chroma_me=1 / trellis=2 / 8x8dct=1 / cqm=0 / deadzone=21,11 / fast_pskip=0 / chroma_qp_offset=-4 / threads=6 / lookahead_threads=1 / sliced_threads=0 / nr=0 / decimate=0 / interlaced=0 / bluray_compat=0 / constrained_intra=0 / bframes=10 / b_pyramid=2 / b_adapt=2 / b_bias=0 / direct=3 / weightb=1 / open_gop=0 / weightp=2 / keyint=240 / keyint_min=23 / scenecut=40 / intra_refresh=0 / rc_lookahead=60 / rc=2pass / mbtree=0 / bitrate=8000 / ratetol=1.0 / qcomp=0.65 / qpmin=0 / qpmax=69 / qpstep=4 / cplxblur=20.0 / qblur=0.5 / vbv_maxrate=62500 / vbv_bufsize=78125 / nal_hrd=none / filler=0 / ip_ratio=1.40 / pb_ratio=1.30 / aq=1:1.00
Default : Yes
Forced : No

Audio #1
ID : 2
Format : AC-3
Format/Info : Audio Coding 3
Mode extension : CM (complete main)
Format settings, Endianness : Big
Codec ID : A_AC3
Duration : 2 h 25 min
Bit rate mode : Constant
Bit rate : 640 kb/s
Channel(s) : 2 channels
Channel positions : Front: L R
Sampling rate : 48.0 kHz
Frame rate : 31.250 FPS (1536 spf)
Bit depth : 16 bits
Compression mode : Lossy
Stream size : 668 MiB (7%)
Title : DVO
Language : Russian
Default : Yes
Forced : No

Audio #2
ID : 3
Format : AC-3
Format/Info : Audio Coding 3
Mode extension : CM (complete main)
Format settings, Endianness : Big
Codec ID : A_AC3
Duration : 2 h 25 min
Bit rate mode : Constant
Bit rate : 640 kb/s
Channel(s) : 2 channels
Channel positions : Front: L R
Sampling rate : 48.0 kHz
Frame rate : 31.250 FPS (1536 spf)
Bit depth : 16 bits
Compression mode : Lossy
Stream size : 668 MiB (7%)
Language : English
Default : No
Forced : No


_________________
Проголосуй за трекер Открытый торрент трекер - RUS-MEDIA.ORG

Проголосуй Открытый торрент трекер - RUS-MEDIA.ORG


Вернуться к началу
 Профиль Отправить личное сообщение  
 
   Похожие торренты   Автор   Торрент   Размер 
В этой теме нет новых непрочитанных сообщений. Освободитель / Libertador [драма, история, военный, биография, 2013] BDRip 720p, Dvo

salma3

143 | 43

6.4 ГБ

В этой теме нет новых непрочитанных сообщений. Кромвель / Cromwell [драма, военный, биография, история, 1970] BDRip 720p, Dvo [НТВ+]

salma3

147 | 12

3.72 ГБ

В этой теме нет новых непрочитанных сообщений. Храброе сердце / Braveheart [драма, военный, биография, история, 1995] BDRip 720p, Dub [iPad]

salma3

10 | 1

4.92 ГБ

В этой теме нет новых непрочитанных сообщений. Темные времена / Darkest Hour [Драма, военный, биография, история, 2017] BDRip 720p, Dub [iTunes]

salma3

5 | 9

6.15 ГБ

В этой теме нет новых непрочитанных сообщений. Гитлер: Последние десять дней / Hitler: The Last Ten Days [драма, военный, биография, история, 1973] BDRip 720p, Avo

salma3

27 | 9

6.73 ГБ

В этой теме нет новых непрочитанных сообщений. Свободный штат Джонса / Free State of Jones [Боевик, драма, военный, биография, история, 2016] BDRip 720p, Мvo

salma3

394 | 50

6.44 ГБ

В этой теме нет новых непрочитанных сообщений. Антропоид / Anthropoid [триллер, военный, биография, история, 2016] BDRip 720p, Mvo

marya111

845 | 44

5.22 ГБ


Начать новую тему Ответить на тему  [ 1 сообщение ] 




Для Мосгорсуда, Роскомнадзора и рекламодателей:: mosgorsud-torrent[собачка]yandex.ru
cron