Торрент файл
скачать торрент магнет ссылка Добавлен: 17 дек 2017, 12:58
Размер: 5.41 ГБ
Сидеров: 39
Личеров: 6
Статус: (salma3)
Автор

СообщениеДобавлено: 17 дек 2017, 12:58 

Не в сети
Супермодератор
Аватара пользователя
Дата регистрации:
15 фев 2012, 16:44
Возраст: 28
Спасибо: 7223 / 2147
Сообщения: 67697
Год выхода: 2004
Жанр: Фантастика, боевик, приключения
Режиссер: Пол У. С. Андерсон

В ролях: Санаа Лэтэн, Рауль Бова, Лэнс Хенриксен, Юэн Бремнер, Колин Сэлмон, Томми Флэнаган, Джозеф Рай, Агат Де Ла Булае, Карстен Норгаард, Сэм Тротон, Пётр Якл, Павел Бездек, Киран Бью, Карстен Войт, Ян Павел Филипенски, Адриан Буше, Энди Лукас, Лиз Мэй Брайс, Гленн Конрой, Оин МакКарти, Карима Эдебайб, Том Вудрафф мл., Иэн Уайт

О фильме:
Наши дни. Группа ученых отправляется в Антарктиду, чтобы отыскать колыбель цивилизации, царившей на Земле многие тысячелетия назад. Под толщей льда они находят пирамиды, в которых обнаруживают человеческие скелеты и следы жизнедеятельности чужих. Однако они еще не знают, что уже находятся под колпаком у хозяев этого города — хищников, и их дни сочтены. Человеческая приманка поможет хищникам, наконец, завершить войну двух космических цивилизаций…



Страна: США, Германия, Чехия, Великобритания
Продолжительность: 01:48:41
Перевод: Профессиональный (дублированный) [Blu ray] со вставками MVO Киномания, Авторский одноголосый

Файл
Кодек: HEVC x265 10 bit
Качество: BDRip-HEVC 1080p
Видео: 1920x818 (2.35:1), 5777 Кбит/сек, 0.153 бит/(Пиксели*Кадры), 23,976 кадр/сек (24000/1001), HEVC (Main10@L.4.1@High) 10 бит
Звук:
Русская, AC3, 448 Кбит/сек, Front: L C R, Side: L R, LFE, 48,0 КГц (Дубляж со вставками MVO)
Русская, AC3, 448 Кбит/сек, Front: L C R, Side: L R, LFE, 48,0 КГц (AVO Гаврилов)
Английская, AC3, 448 Кбит/сек, Front: L C R, Side: L R, LFE, 48,0 КГц (Оригинал)
Субтитры: Русские (форсированные, полные), английские
Разделение по главам: есть

Семпл

Общее
Уникальный идентификатор : 233177452411118625738571957323668058497 (0xAF6C5802FA8790959428128890D2F181)
Полное имя : H:HEVC 210 BITAliens vs PredatorAliens vs Predator_UNRATED_2004_BDRip_1080p_[HEVC]_10bit.mkv
Формат : Matroska
Версия формата : Version 4 / Version 2
Размер файла : 5,41 Гбайт
Продолжительность : 1 ч. 48 м.
Общий поток : 7124 Кбит/сек
Дата кодирования : UTC 2017-12-16 18:57:32
Программа кодирования : mkvmerge v18.0.0 ('Apricity') 64-bit
Библиотека кодирования : libebml v1.3.5 + libmatroska v1.4.8
Обложка : Yes
Attachments : cover.png

Видео
Идентификатор : 1
Формат : HEVC
Формат/Информация : High Efficiency Video Coding
Профиль формата : Main 10@L4.1@High
Идентификатор кодека : V_MPEGH/ISO/HEVC
Продолжительность : 1 ч. 48 м.
Битрейт : 5777 Кбит/сек
Ширина : 1920 пикселей
Высота : 818 пикселей
Соотношение сторон : 2,35:1
Режим частоты кадров : Постоянный
Частота кадров : 23,976 (24000/1001) кадра/сек
Цветовое пространство : YUV
Субдискретизация насыщенности : 4:2:0
Битовая глубина : 10 бит
Бит/(Пиксели*Кадры) : 0.153
Размер потока : 4,38 Гбайт (81%)
Библиотека кодирования : x265 2.5+20-0967d0add97e:[Windows][GCC 7.2.0][64 bit] 10bit
Настройки программы : cpuid=1173503 / frame-threads=4 / numa-pools=16 / wpp / no-pmode / no-pme / no-psnr / no-ssim / log-level=2 / input-csp=1 / input-res=1920x818 / interlace=0 / total-frames=0 / level-idc=41 / high-tier=1 / uhd-bd=0 / ref=5 / no-allow-non-conformance / no-repeat-headers / annexb / no-aud / no-hrd / info / hash=0 / no-temporal-layers / open-gop / min-keyint=23 / keyint=240 / bframes=8 / b-adapt=2 / no-b-pyramid / bframe-bias=0 / rc-lookahead=60 / lookahead-slices=4 / scenecut=40 / no-intra-refresh / ctu=64 / min-cu-size=8 / rect / amp / max-tu-size=32 / tu-inter-depth=4 / tu-intra-depth=4 / limit-tu=1 / rdoq-level=2 / dynamic-rd=0.00 / no-ssim-rd / signhide / no-tskip / nr-intra=0 / nr-inter=0 / no-constrained-intra / no-strong-intra-smoothing / max-merge=3 / limit-refs=3 / limit-modes / me=3 / subme=7 / merange=57 / temporal-mvp / weightp / weightb / no-analyze-src-pics / deblock=-3:-3 / no-sao / no-sao-non-deblock / rd=6 / no-early-skip / rskip / no-fast-intra / no-tskip-fast / no-cu-lossless / no-b-intra / no-splitrd-skip / rdpenalty=0 / psy-rd=2.00 / psy-rdoq=1.00 / rd-refine / analysis-reuse-mode=0 / no-lossless / cbqpoffs=0 / crqpoffs=0 / rc=crf / crf=18.0 / qcomp=0.60 / qpstep=4 / stats-write=0 / stats-read=0 / vbv-maxrate=50000 / vbv-bufsize=50000 / vbv-init=0.9 / crf-max=0.0 / crf-min=0.0 / ipratio=1.40 / pbratio=1.30 / aq-mode=1 / aq-strength=0.30 / cutree / zone-count=1 / zones: / start-frame=138954 / end-frame=156339 / qp=35 / no-strict-cbr / qg-size=32 / no-rc-grain / qpmax=69 / qpmin=0 / no-const-vbv / sar=1 / overscan=0 / videoformat=5 / range=0 / colorprim=2 / transfer=2 / colormatrix=1 / chromaloc=0 / display-window=0 / max-cll=0,0 / min-luma=0 / max-luma=1023 / log2-max-poc-lsb=8 / vui-timing-info / vui-hrd-info / slices=1 / opt-qp-pps / opt-ref-list-length-pps / no-multi-pass-opt-rps / scenecut-bias=0.05 / no-opt-cu-delta-qp / no-aq-motion / no-hdr / no-hdr-opt / no-dhdr10-opt / analysis-reuse-level=5 / scale-factor=0 / refine-intra=0 / refine-inter=0 / refine-mv=0 / no-limit-sao / ctu-info=0
Язык : English
Default : Да
Forced : Да
Цветовой диапазон : Limited
Коэффициенты матрицы : BT.709

Аудио #1
Идентификатор : 2
Формат : AC-3
Формат/Информация : Audio Coding 3
Идентификатор кодека : A_AC3
Продолжительность : 1 ч. 48 м.
Вид битрейта : Постоянный
Битрейт : 448 Кбит/сек
Каналы : 6 каналов
Расположение каналов : Front: L C R, Side: L R, LFE
Частота : 48,0 КГц
Частота кадров : 31,250 кадров/сек (1536 SPF)
Битовая глубина : 16 бит
Метод сжатия : С потерями
Размер потока : 348 Мбайт (6%)
Заголовок : Дубляж Blu-Ray CEE + вставки MVO Киномания
Язык : Russian
ServiceKind : Complete Main
Default : Да
Forced : Нет

Аудио #2
Идентификатор : 3
Формат : AC-3
Формат/Информация : Audio Coding 3
Идентификатор кодека : A_AC3
Продолжительность : 1 ч. 48 м.
Вид битрейта : Постоянный
Битрейт : 448 Кбит/сек
Каналы : 6 каналов
Расположение каналов : Front: L C R, Side: L R, LFE
Частота : 48,0 КГц
Частота кадров : 31,250 кадров/сек (1536 SPF)
Битовая глубина : 16 бит
Метод сжатия : С потерями
Размер потока : 348 Мбайт (6%)
Заголовок : AVO Гаврилов
Язык : Russian
ServiceKind : Complete Main
Default : Нет
Forced : Нет

Аудио #3
Идентификатор : 4
Формат : AC-3
Формат/Информация : Audio Coding 3
Идентификатор кодека : A_AC3
Продолжительность : 1 ч. 48 м.
Вид битрейта : Постоянный
Битрейт : 448 Кбит/сек
Каналы : 6 каналов
Расположение каналов : Front: L C R, Side: L R, LFE
Частота : 48,0 КГц
Частота кадров : 31,250 кадров/сек (1536 SPF)
Битовая глубина : 16 бит
Метод сжатия : С потерями
Размер потока : 348 Мбайт (6%)
Заголовок : Оригинал
Язык : English
ServiceKind : Complete Main
Default : Нет
Forced : Нет

Текст #1
Идентификатор : 5
Формат : UTF-8
Идентификатор кодека : S_TEXT/UTF8
Идентификатор кодека/Информация : UTF-8 Plain Text
Продолжительность : 1 ч. 19 м.
Битрейт : 6 бит/сек
ElementCount : 59
Размер потока : 3,67 Кбайт (0%)
Заголовок : Форсированные
Язык : Russian
Default : Да
Forced : Нет

Текст #2
Идентификатор : 6
Формат : UTF-8
Идентификатор кодека : S_TEXT/UTF8
Идентификатор кодека/Информация : UTF-8 Plain Text
Продолжительность : 1 ч. 28 м.
Битрейт : 50 бит/сек
ElementCount : 582
Размер потока : 32,9 Кбайт (0%)
Заголовок : Киномания
Язык : Russian
Default : Нет
Forced : Нет

Текст #3
Идентификатор : 7
Формат : UTF-8
Идентификатор кодека : S_TEXT/UTF8
Идентификатор кодека/Информация : UTF-8 Plain Text
Продолжительность : 1 ч. 31 м.
Битрейт : 27 бит/сек
ElementCount : 658
Размер потока : 18,5 Кбайт (0%)
Заголовок : Full
Язык : English
Default : Нет
Forced : Нет

Меню
00:00:00.000 : :Killers in the Cold
00:02:18.346 : :Something in Sector 14
00:04:06.204 : :Weyland's Offer
00:08:36.140 : :Below the Ice
00:12:59.653 : :The Better Chance
00:15:41.607 : :Three Simple Rules
00:19:06.436 : :Razorback Point
00:23:22.109 : :The Tunnel
00:26:21.705 : :Going Down
00:28:43.888 : :The Pyramid
00:30:39.420 : :Awakening
00:33:35.805 : :First Blood
00:35:48.896 : :Chosen Ones
00:41:39.955 : :The Sarcophagus
00:44:34.004 : :The Spawning
00:49:33.011 : :Prey
00:53:54.814 : :Death Maze
00:57:45.378 : :Battle Zone
01:03:10.328 : :Weyland's Last Stand
01:05:25.921 : :Rite of Passage
01:08:36.153 : :Gods and Monsters
01:11:59.648 : :The Enemy of My Enemy
01:13:36.995 : :Alone
01:15:41.703 : :Two Warriors
01:18:50.517 : :Allies
01:21:48.612 : :The Nest
01:24:44.954 : :The Fire Down Below
01:28:21.546 : :Blood of the Kill
01:29:41.292 : :The Bitch Is Back
01:33:16.591 : :A Warrior's Token
01:36:01.589 : :The Beast Within
01:36:35.623 : :End Titles


Релиз от: от XuMuK


_________________
Проголосуй за трекер Открытый торрент трекер - RUS-MEDIA.ORG

Проголосуй Открытый торрент трекер - RUS-MEDIA.ORG


Вернуться к началу
 Профиль Отправить личное сообщение  
 
   Похожие торренты   Автор   Торрент   Размер 
В этой теме нет новых непрочитанных сообщений. Чужой против Хищника / AVP: Alien vs. Predator [Ужасы, фантастика, боевик, 2004] BDRip 1080p, Dub [Unrated]

salma3

0 | 0

15.06 ГБ

В этой теме нет новых непрочитанных сообщений. Чужой против Хищника / AVP: Alien vs. Predator [Ужасы, фантастика, боевик, 2004] BDRip 1080p, Dub [Theatrical Cut]

salma3

0 | 0

12.65 ГБ

В этой теме нет новых непрочитанных сообщений. Чужой против Хищника / AVP: Alien vs. Predator [Ужасы, фантастика, боевик, 2004] BDRip 1080p, Dub [Unrated]

salma3

0 | 1

18.66 ГБ

В этой теме нет новых непрочитанных сообщений. Чужой против Хищника / Alien vs. Predator [Фантастика, боевик, приключения, 2004] WEB-DLRip-AVC, Dub [Open Matte]

salma3

0 | 0

3.61 ГБ

В этой теме нет новых непрочитанных сообщений. Чужой против Хищника / AVP: Alien vs. Predator [Фантастика, боевик, триллер, 2004] WEB-DLRip-AVC, Dub [Open Matte] [Theatrical Cut]

salma3

0 | 0

745.69 МБ

В этой теме нет новых непрочитанных сообщений. Чужой 3 / Alien 3 [Ужасы, фантастика, боевик, 1992] BDRip-HEVC 1080p, Dub [Special Edition]

salma3

16 | 4

8.08 ГБ

В этой теме нет новых непрочитанных сообщений. Чужой: Завет / Alien: Covenant [Фантастика, триллер, ужасы, 2017] BDRemux 1080p, Dub [Расширенная версия]

salma3

218 | 38

25.38 ГБ


Начать новую тему Ответить на тему  [ 1 сообщение ] 




Для Мосгорсуда, Роскомнадзора и рекламодателей:: mosgorsud-torrent[собачка]yandex.ru
cron