Торрент файл
скачать торрент магнет ссылка Добавлен: 17 дек 2017, 12:49
Размер: 54.83 ГБ
Сидеров: 14
Личеров: 2
Статус: (salma3)
Автор

СообщениеДобавлено: 17 дек 2017, 12:49 

Не в сети
Супермодератор
Аватара пользователя
Дата регистрации:
15 фев 2012, 16:44
Возраст: 28
Спасибо: 7290 / 2147
Сообщения: 70756
Год выхода: 2015
Жанр: Фантастика, боевик, триллер
Режиссер: Нил Бломкамп

В ролях: Шарлто Копли, Дев Патель, Ниндзя, Йоланди Фиссер, Хосе Пабло Кантилльо, Хью Джекман, Сигурни Уивер, Брэндон Оре, Джонни Селема, Андерсон Купер

О фильме:
Чаппи - вундеркинд. Как и любой другой ребенок, он попадает под влияние своего окружения, и только его сердце и душа помогут ему найти свой путь. Но есть одна вещь, которая делает Чаппи непохожим на всех остальных: он – первый робот, способный чувствовать и думать.



Страна: США, Мексика, ЮАР
Продолжительность: 02:00:19
Перевод(ы): Дублированный | Лицензия
#2: Авторский | Есарев
#3: Авторский | Яроцкий

Файл
Качество: BDRemux 2160p
Видео: MPEG-H HEVC HDR Video, 3840x2160, 49.6 Mbit/s, 23.976 fps
Звук:
Аудио #01: 48 kHz, AC3, 5.1, 640 Kbps | Дублированный | RUS |
Аудио #02: 48 kHz, DTS-HD MA, 7.1, 2946 Kbps | Авторский (ценз.) | RUS |
Аудио #03: 48 kHz, DTS-HD MA, 7.1, 2946 Kbps | Авторский ( без ценз.) | RUS |
Аудио #04: 48 kHz, DTS-HD MA, 7.1, 2971 Kbps | Авторский | RUS |
Аудио #05: 48 kHz, TrueHD, 7.1, 5407 Kbps | Оригинал | ENG |
Аудио #06: 48 kHz, AC3, 5.1, 640 Kbps | Оригинал | ENG |
Субтитры: Русские (forced, full), английские

General
Unique ID : 228789547693583311999778336663442688390 (0xAC1F439B2DBC6253A537B9286EC60986)
Complete name : G:VideoSSDChappie.2015.BDREMUX.2160p.4K.UltraHD.HEVC.HDR.ExKinoRay.mkv
Format : Matroska
Format version : Version 4 / Version 2
File size : 54.8 GiB
Duration : 2 h 0 min
Overall bit rate mode : Variable
Overall bit rate : 65.2 Mb/s
Movie name : Chappie 2015 from ExKinoRay
Encoded date : UTC 2017-12-17 05:44:29
Writing application : mkvmerge v18.0.0 ('Apricity') 64-bit
Writing library : libebml v1.3.5 + libmatroska v1.4.8

Video
ID : 1
Format : HEVC
Format/Info : High Efficiency Video Coding
Format profile : Main 10@L5.1@High
Codec ID : V_MPEGH/ISO/HEVC
Duration : 2 h 0 min
Bit rate : 49.6 Mb/s
Width : 3 840 pixels
Height : 2 160 pixels
Display aspect ratio : 16:9
Frame rate mode : Constant
Frame rate : 23.976 (24000/1001) FPS
Color space : YUV
Chroma subsampling : 4:2:0 (Type 2)
Bit depth : 10 bits
Bits/(Pixel*Frame) : 0.249
Stream size : 41.7 GiB (76%)
Language : English
Default : Yes
Forced : No
Color range : Limited
Color primaries : BT.2020
Transfer characteristics : PQ
Matrix coefficients : BT.2020 non-constant
Mastering display color pri : R: x=0.680000 y=0.320000, G: x=0.265000 y=0.690000, B: x=0.150000 y=0.060000, White point: x=0.312700 y=0.329000
Mastering display luminance : min: 0.0050 cd/m2, max: 4000.0000 cd/m2
Maximum Content Light Level : 8154 cd/m2
Maximum Frame-Average Light : 1570 cd/m2

Audio #1
ID : 2
Format : AC-3
Format/Info : Audio Coding 3
Format settings, Endianness : Big
Codec ID : A_AC3
Duration : 2 h 0 min
Bit rate mode : Constant
Bit rate : 640 kb/s
Channel(s) : 6 channels
Channel positions : Front: L C R, Side: L R, LFE
Sampling rate : 48.0 kHz
Frame rate : 31.250 FPS (1536 SPF)
Bit depth : 16 bits
Compression mode : Lossy
Stream size : 551 MiB (1%)
Title : Dub
Language : Russian
Service kind : Complete Main
Default : Yes
Forced : No

Audio #2
ID : 3
Format : DTS
Format/Info : Digital Theater Systems
Format profile : MA / Core
Mode : 16
Format settings, Endianness : Big
Codec ID : A_DTS
Duration : 2 h 0 min
Bit rate mode : Variable / Constant
Bit rate : 2 946 kb/s / 1 509 kb/s
Channel(s) : 8 channels / 6 channels
Channel positions : Front: L C R, Side: L R, Back: L R, LFE / Front: L C R, Side: L R, LFE
Sampling rate : 48.0 kHz
Frame rate : 93.750 FPS (512 SPF)
Bit depth : 16 bits
Compression mode : Lossless / Lossy
Stream size : 2.48 GiB (5%)
Title : AVO [Yesarev] cens.
Language : Russian
Default : No
Forced : No

Audio #3
ID : 4
Format : DTS
Format/Info : Digital Theater Systems
Format profile : MA / Core
Mode : 16
Format settings, Endianness : Big
Codec ID : A_DTS
Duration : 2 h 0 min
Bit rate mode : Variable / Constant
Bit rate : 2 946 kb/s / 1 509 kb/s
Channel(s) : 8 channels / 6 channels
Channel positions : Front: L C R, Side: L R, Back: L R, LFE / Front: L C R, Side: L R, LFE
Sampling rate : 48.0 kHz
Frame rate : 93.750 FPS (512 SPF)
Bit depth : 16 bits
Compression mode : Lossless / Lossy
Stream size : 2.48 GiB (5%)
Title : AVO [Yesarev] no cens.
Language : Russian
Default : No
Forced : No

Audio #4
ID : 5
Format : DTS
Format/Info : Digital Theater Systems
Format profile : MA / Core
Mode : 16
Format settings, Endianness : Big
Codec ID : A_DTS
Duration : 2 h 0 min
Bit rate mode : Variable / Constant
Bit rate : 2 971 kb/s / 1 509 kb/s
Channel(s) : 8 channels / 6 channels
Channel positions : Front: L C R, Side: L R, Back: L R, LFE / Front: L C R, Side: L R, LFE
Sampling rate : 48.0 kHz
Frame rate : 93.750 FPS (512 SPF)
Bit depth : 16 bits
Compression mode : Lossless / Lossy
Stream size : 2.50 GiB (5%)
Title : AVO [Yarotsky]
Language : Russian
Default : No
Forced : No

Audio #5
ID : 6
Format : TrueHD
Format profile : TrueHD+Atmos / TrueHD
Codec ID : A_TRUEHD
Duration : 2 h 0 min
Bit rate mode : Variable
Bit rate : 5 407 kb/s
Maximum bit rate : 8 448 kb/s
Channel(s) : Object Based / 8 channels
Channel positions : Object Based / Front: L C R, Side: L R, Back: L R, LFE
Sampling rate : / 48.0 kHz
Frame rate : 1 200.000 FPS (40 SPF)
Compression mode : Lossless
Stream size : 4.54 GiB (8%)
Title : Original
Language : English
Default : No
Forced : No

Audio #6
ID : 7
Format : AC-3
Format/Info : Audio Coding 3
Format settings, Endianness : Big
Codec ID : A_AC3
Duration : 2 h 0 min
Bit rate mode : Constant
Bit rate : 640 kb/s
Channel(s) : 6 channels
Channel positions : Front: L C R, Side: L R, LFE
Sampling rate : 48.0 kHz
Frame rate : 31.250 FPS (1536 SPF)
Bit depth : 16 bits
Compression mode : Lossy
Stream size : 551 MiB (1%)
Language : English
Service kind : Complete Main
Default : No
Forced : No

Text #1
ID : 8
Format : UTF-8
Codec ID : S_TEXT/UTF8
Codec ID/Info : UTF-8 Plain Text
Duration : 1 h 15 min
Bit rate : 1 b/s
Count of elements : 12
Stream size : 829 Bytes (0%)
Title : Forc.
Language : Russian
Default : Yes
Forced : No

Text #2
ID : 9
Format : UTF-8
Codec ID : S_TEXT/UTF8
Codec ID/Info : UTF-8 Plain Text
Duration : 1 h 52 min
Bit rate : 97 b/s
Count of elements : 1713
Stream size : 80.0 KiB (0%)
Title : Full
Language : Russian
Default : No
Forced : No

Text #3
ID : 10
Format : UTF-8
Codec ID : S_TEXT/UTF8
Codec ID/Info : UTF-8 Plain Text
Duration : 1 h 52 min
Bit rate : 59 b/s
Count of elements : 1608
Stream size : 49.2 KiB (0%)
Title : Full
Language : English
Default : No
Forced : No

Menu
00:00:00.000 : en:Chapter 1
00:03:37.008 : en:Chapter 2
00:09:55.261 : en:Chapter 3
00:13:50.496 : en:Chapter 4
00:21:53.645 : en:Chapter 5
00:31:17.542 : en:Chapter 6
00:37:19.320 : en:Chapter 7
00:46:58.732 : en:Chapter 8
00:54:36.690 : en:Chapter 9
01:06:12.927 : en:Chapter 10
01:09:57.651 : en:Chapter 11
01:16:48.395 : en:Chapter 12
01:24:59.552 : en:Chapter 13
01:31:35.198 : en:Chapter 14
01:42:36.942 : en:Chapter 15
01:50:03.597 : en:Chapter 16


Релиз от: Автор релиза:


_________________
Проголосуй за трекер Открытый торрент трекер - RUS-MEDIA.ORG

Проголосуй Открытый торрент трекер - RUS-MEDIA.ORG


Вернуться к началу
 Профиль Отправить личное сообщение  
 
   Похожие торренты   Автор   Торрент   Размер 
В этой теме нет новых непрочитанных сообщений. Робот по имени Чаппи / Chappie [Боевик, Фантастика, 2015] HDRip, Avo [Гаврилов]

salma3

75 | 2

1.46 ГБ

В этой теме нет новых непрочитанных сообщений. Терминатор: Генезис / Terminator Genisys [Фантастика, боевик, триллер, 2015] UHD BDRemux 2160p, Dub [4K] [Лицензия]

salma3

21 | 29

55.11 ГБ

В этой теме нет новых непрочитанных сообщений. Бегущий в лабиринте: Испытание огнём / Maze Runner: The Scorch Trials [Фантастика, боевик, триллер, 2015] UHD BDRemux 2160p, Dub [4K] [Лицензия]

salma3

14 | 11

46.97 ГБ

В этой теме нет новых непрочитанных сообщений. Меня зовут Джиг Робот / Lo chiamavano Jeeg Robot [фантастика, боевик, триллер, 2015] BDRemux 1080p, Avo

salma3

52 | 36

30.97 ГБ

В этой теме нет новых непрочитанных сообщений. Хитмэн: Агент 47 / Hitman: Agent 47 [Боевик, триллер, криминал, 2015] UHD BDRemux 2160p, Dub [4K] [Лицензия]

salma3

21 | 9

34.65 ГБ

В этой теме нет новых непрочитанных сообщений. 5-я волна / The 5th Wave [Фантастика, боевик, триллер, 2016] UHD BDRemux 2160p, Dub [4K] [Лицензия]

salma3

30 | 10

49.67 ГБ

В этой теме нет новых непрочитанных сообщений. На гребне волны / Point Break [боевик, триллер, криминал, спорт, 2015] UHD BDRemux 2160p, Dub+Sub [Лицензия] [4K]

salma3

13 | 9

56.24 ГБ


Начать новую тему Ответить на тему  [ 1 сообщение ] 




Для Мосгорсуда, Роскомнадзора и рекламодателей:: mosgorsud-torrent[собачка]yandex.ru
cron
cron