Торрент файл
скачать торрент магнет ссылка Добавлен: 14 дек 2017, 14:57
Размер: 57.99 ГБ
Сидеров: 18
Личеров: 9
Статус: (salma3)
Автор

СообщениеДобавлено: 14 дек 2017, 14:57 

В сети
Супермодератор
Аватара пользователя
Дата регистрации:
15 фев 2012, 16:44
Возраст: 29
Спасибо: 7379 / 2147
Сообщения: 76233
Год выхода: 2014
Жанр: боевик, триллер, приключения
Режиссер: Патрик Хьюз

В ролях: Сильвестр Сталлоне, Джейсон Стэйтем, Харрисон Форд, Арнольд Шварценеггер, Мэл Гибсон, Уэсли Снайпс, Дольф Лундгрен, Рэнди Кутюр, Терри Крюс, Келси Грэммер, Глен Пауэлл, Антонио Бандерас и др.

Описание: Барни, Кристмас и остальные члены команды сходятся лицом к лицу с Конрадом Стоунбэнксом, многие годы назад основавшем вместе с Барни команду «Неудержимых». Впоследствии Стоунбэнкс становится безжалостным торговцем оружием и тем самым превращается в человека, которого Барни было поручено убить. Или по крайней мере он сам так считал. Теперь Стоунбэнкс, один раз уже сумевший обмануть смерть, поставил себе цель покончить с «Неудержимыми» — но у Барни на этот счет свои планы. Барни решает, что в его борьбе «свежий» подход можно противопоставить старым методам, и пополняет ряды людьми, которые моложе, быстрее и технически более подкованные. Так у членов команды «Неудержимых» начинается новая эра. Последняя миссия превращается в столкновение между представителями классической старой школы и экспертами в высоких технологиях.



Страна: США, Франция, Болгария
Продолжительность: 02:06:17
Перевод 1: Профессиональный (дублированный) Blu-Ray
Перевод 2: Авторский (одноголосый закадровый) Дмитрий Есарев
Субтитры: русские (forced, full), английские (full, SDH)


Файл
Качество: UHD BDRemux 2160p
Видео: MPEG-H HEVC Video / 54999 kbps / 3840x2160 / 23.976 fps / 16:9 / Main 10 Profile 5.1 High / 4:2:0 / 10 bits / HDR / BT.2020 /
Аудио 1: Russian DTS-HD Master Audio / 5.1 / 48 kHz / 2241 kbps / 16-bit (DTS Core: 5.1 / 48 kHz / 1509 kbps / 16-bit) |Dub, Blu-Ray|
Аудио 2: Russian DTS-HD Master Audio / 7.1 / 48 kHz / 4301 kbps / 24-bit (DTS Core: 5.1 / 48 kHz / 1509 kbps / 24-bit) |Дмитрий Есарев|
Аудио 3: English DTS-HD Master Audio / 7.1 / 48 kHz / 4197 kbps / 24-bit (DTS Core: 5.1 / 48 kHz / 1509 kbps / 24-bit) |Original|

Общее
Уникальный идентификатор : 230831092111501828484863127975361646215 (0xADA873846B746FD79BDD7F7042B20E87)
Полное имя : Неудержимые 3.2014.Theatrical.Cut.UHD.BluRay.Remux.2160p.mkv
Формат : Matroska
Версия формата : Version 4 / Version 2
Размер файла : 58,0 Гбайт
Продолжительность : 2 ч. 6 м.
Общий поток : 65,7 Мбит/сек
Дата кодирования : UTC 2017-12-12 14:57:04
Программа кодирования : mkvmerge v18.0.0 ('Apricity') 64-bit
Библиотека кодирования : libebml v1.3.5 + libmatroska v1.4.8
Attachments : poster.jpg

Видео
Идентификатор : 1
Формат : HEVC
Формат/Информация : High Efficiency Video Coding
Профиль формата : Main 10@L5.1@High
Идентификатор кодека : V_MPEGH/ISO/HEVC
Продолжительность : 2 ч. 6 м.
Битрейт : 55,0 Мбит/сек
Ширина : 3840 пикселей
Высота : 2160 пикселей
Соотношение сторон : 16:9
Режим частоты кадров : Постоянный
Частота кадров : 23,976 (24000/1001) кадра/сек
Цветовое пространство : YUV
Субдискретизация насыщенности : 4:2:0 (Type 2)
Битовая глубина : 10 бит
Бит/(Пиксели*Кадры) : 0.277
Размер потока : 48,5 Гбайт (84%)
Библиотека кодирования : ATEME Titan KFE 3.7.3 (4.7.3.1003)
Default : Да
Forced : Нет
Цветовой диапазон : Limited
Основные цвета : BT.2020
Характеристики трансфера : PQ
Коэффициенты матрицы : BT.2020 non-constant
MasteringDisplay_ColorPrimaries : R: x=0.680000 y=0.320000, G: x=0.265000 y=0.690000, B: x=0.150000 y=0.060000, White point: x=0.312700 y=0.329000
MasteringDisplay_Luminance : min: 0.0050 cd/m2, max: 4000.0000 cd/m2

Аудио #1
Идентификатор : 2
Формат : DTS
Формат/Информация : Digital Theater Systems
Профиль формата : MA / Core
Идентификатор кодека : A_DTS
Продолжительность : 2 ч. 6 м.
Вид битрейта : Переменный / Постоянный
Битрейт : 2241 Кбит/сек / 1509 Кбит/сек
Каналы : 6 каналов
Расположение каналов : Front: L C R, Side: L R, LFE
Частота : 48,0 КГц
Частота кадров : 93,750 кадра/сек (512 SPF)
Битовая глубина : 16 бит
Метод сжатия : Без потерь / Lossy
Размер потока : 1,98 Гбайт (3%)
Заголовок : Dub, Blu-Ray
Язык : Russian
Default : Да
Forced : Нет

Аудио #2
Идентификатор : 3
Формат : DTS
Формат/Информация : Digital Theater Systems
Профиль формата : MA / Core
Идентификатор кодека : A_DTS
Продолжительность : 2 ч. 6 м.
Вид битрейта : Переменный / Постоянный
Битрейт : 4301 Кбит/сек / 1509 Кбит/сек
Каналы : 8 каналов / 6 каналов
Расположение каналов : Front: L C R, Side: L R, Back: L R, LFE / Front: L C R, Side: L R, LFE
Частота : 48,0 КГц
Частота кадров : 93,750 кадра/сек (512 SPF)
Битовая глубина : 24 бит
Метод сжатия : Без потерь / Lossy
Размер потока : 3,79 Гбайт (7%)
Заголовок : Д. Есарев
Язык : Russian
Default : Нет
Forced : Нет

Аудио #3
Идентификатор : 4
Формат : DTS
Формат/Информация : Digital Theater Systems
Профиль формата : MA / Core
Идентификатор кодека : A_DTS
Продолжительность : 2 ч. 6 м.
Вид битрейта : Переменный / Постоянный
Битрейт : 4197 Кбит/сек / 1509 Кбит/сек
Каналы : 8 каналов / 6 каналов
Расположение каналов : Front: L C R, Side: L R, Back: L R, LFE / Front: L C R, Side: L R, LFE
Частота : 48,0 КГц
Частота кадров : 93,750 кадра/сек (512 SPF)
Битовая глубина : 24 бит
Метод сжатия : Без потерь / Lossy
Размер потока : 3,70 Гбайт (6%)
Язык : English
Default : Нет
Forced : Нет

Текст #1
Идентификатор : 5
Формат : UTF-8
Идентификатор кодека : S_TEXT/UTF8
Идентификатор кодека/Информация : UTF-8 Plain Text
Продолжительность : 53 м. 26 с.
Битрейт : 1 бит/сек
ElementCount : 14
Размер потока : 488 байт (0%)
Заголовок : forced
Язык : Russian
Default : Да
Forced : Нет

Текст #2
Идентификатор : 6
Формат : UTF-8
Идентификатор кодека : S_TEXT/UTF8
Идентификатор кодека/Информация : UTF-8 Plain Text
Продолжительность : 1 ч. 54 м.
Битрейт : 67 бит/сек
ElementCount : 1340
Размер потока : 56,8 Кбайт (0%)
Заголовок : Notabenoid
Язык : Russian
Default : Нет
Forced : Нет

Текст #3
Идентификатор : 7
Формат : UTF-8
Идентификатор кодека : S_TEXT/UTF8
Идентификатор кодека/Информация : UTF-8 Plain Text
Продолжительность : 1 ч. 54 м.
Битрейт : 41 бит/сек
ElementCount : 1325
Размер потока : 34,5 Кбайт (0%)
Заголовок : full
Язык : English
Default : Нет
Forced : Нет

Текст #4
Идентификатор : 8
Формат : UTF-8
Идентификатор кодека : S_TEXT/UTF8
Идентификатор кодека/Информация : UTF-8 Plain Text
Продолжительность : 1 ч. 54 м.
Битрейт : 51 бит/сек
ElementCount : 1600
Размер потока : 42,9 Кбайт (0%)
Заголовок : SDH
Язык : English
Default : Нет
Forced : Нет

Меню
00:00:00.000 : en: Chapter 1
00:07:06.801 : en: Chapter 2
00:12:41.302 : en: Chapter 3
00:21:44.595 : en: Chapter 4
00:29:30.936 : en: Chapter 5
00:35:39.137 : en: Chapter 6
00:41:50.258 : en: Chapter 7
00:48:04.381 : en: Chapter 8
00:54:12.458 : en: Chapter 9
01:00:05.018 : en: Chapter 10
01:10:42.321 : en: Chapter 11
01:19:16.794 : en: Chapter 12
01:28:05.071 : en: Chapter 13
01:34:28.121 : en: Chapter 14
01:43:14.271 : en: Chapter 15
01:51:10.914 : en: Chapter 16


_________________
Проголосуй за трекер Открытый торрент трекер - RUS-MEDIA.ORG

Проголосуй Открытый торрент трекер - RUS-MEDIA.ORG


Вернуться к началу
 Профиль Отправить личное сообщение  
 
   Похожие торренты   Автор   Торрент   Размер 
В этой теме нет новых непрочитанных сообщений. Неудержимые 3 / The Expendables 3 [боевик, триллер, приключения, 2014] BDRip, Avo [Гаврилов] [Расширенная версия]

salma3

48 | 10

1.46 ГБ

В этой теме нет новых непрочитанных сообщений. Солт / Salt [Боевик, триллер, 2010] UHD BDRemux 2160p, Dub [4K] [Лицензия] [Театральная версия]

salma3

25 | 11

44.65 ГБ

В этой теме нет новых непрочитанных сообщений. G.I. Joe: Бросок кобры 2 / G.I. Joe: Retaliation [фантастика, боевик, триллер, 2013] UHD BDRemux 2160p, Dub [4K] [Лицензия] [Dolby Vison] [Театральная версия]

salma3

0 | 0

54.11 ГБ

В этой теме нет новых непрочитанных сообщений. Неудержимые 3 / The Expendables 3 [Боевик, триллер, приключения, 2014] BDRip 720p, Dub

salma3

3 | 7

4.15 ГБ

В этой теме нет новых непрочитанных сообщений. Код да Винчи / The Da Vinci Code [Триллер, драма, детектив, 2006] UHD BDRemux 2160p, Dub [4K] [Театральная версия] [Лицензия]

salma3

10 | 7

50.85 ГБ

В этой теме нет новых непрочитанных сообщений. Другой мир / Underworld [Фэнтези, боевик, триллер, 2003] UHD BDRemux 2160p, Dub [4K] [Театральная версия]

salma3

13 | 10

45.33 ГБ

В этой теме нет новых непрочитанных сообщений. Терминатор 2: Судный день / Terminator 2: Judgment Day [Фантастика, боевик, триллер, 1991] BDRemux 2160p, Dub [4K] [Театральная версия]

salma3

29 | 19

53.24 ГБ


Начать новую тему Ответить на тему  [ 1 сообщение ] 




Для Мосгорсуда, Роскомнадзора и рекламодателей:: mosgorsud-torrent[собачка]yandex.ru
cron