Торрент файл
скачать торрент магнет ссылка Добавлен: 12 дек 2017, 01:36
Размер: 3.82 ГБ
Сидеров: 51
Личеров: 10
Статус: (salma3)
Автор

СообщениеДобавлено: 12 дек 2017, 01:36 

Не в сети
Супермодератор
Аватара пользователя
Дата регистрации:
15 фев 2012, 16:44
Возраст: 29
Спасибо: 7331 / 2147
Сообщения: 73810
Год выхода: 2016
Жанр: Триллер, драма, криминал
Режиссер: Пол Шредер

В ролях: Николас Кейдж, Уиллем Дефо, Мэтт Кук, Омар Дж. Дорси, Пол Шредер, Луиса Краузе, Рейнальдо Гальегос, Брюс Рейзен

О фильме:
Николас Кейдж и Уиллем Дефо в криминальном триллере Пола Шредера по роману Эдварда Банкера. Троица уголовников получает задание от наркобарона – похитить сына его бывшего партнера. Когда дело идет наперекосяк, похитители пускаются в бега, готовые на всё, лишь бы вновь не оказаться за решеткой.



Страна: США
Продолжительность: 01:33:00
Перевод: Профессиональный (многоголосый, закадровый)[iTunes]

Файл
Кодек: MPEG-4 AVC
Качество: BDRip 720p | iTunes
Видео: AVC, 1280x534, 23.976 fps, 3986 Kbps
Аудио1: AC3, 6 ch, 384 Kbps - Русский (MVO)
Аудио2: DTS, 6 ch, 1509 Kbps - Английский
Субтитры: Русские, английские

Общее
Уникальный идентификатор : 205593691748786082253669850798829243405 (0x9AABE79C7DA7391C8A32578153CE8C0D)
Полное имя : Dog Eat Dog.2016.BDRip.720p.mkv
Формат : Matroska
Версия формата : Version 4 / Version 2
Размер файла : 3,82 Гбайт
Продолжительность : 1 ч. 33 м.
Общий поток : 5881 Кбит/сек
Название фильма : Dog Eat Dog.2016.BDRip.720p
Дата кодирования : UTC 2017-12-11 20:51:30
Программа кодирования : mkvmerge v17.0.0 ('Be Ur Friend') 64-bit
Библиотека кодирования : libebml v1.3.5 + libmatroska v1.4.8

Видео
Идентификатор : 1
Формат : AVC
Формат/Информация : Advanced Video Codec
Профиль формата : High@L4.1
Настройки формата : CABAC / 12 Ref Frames
Параметр CABAC формата : Да
Параметр RefFrames формата : 12 кадров
Идентификатор кодека : V_MPEG4/ISO/AVC
Продолжительность : 1 ч. 32 м.
Битрейт : 3986 Кбит/сек
Ширина : 1280 пикселей
Высота : 534 пикселя
Соотношение сторон : 2,40:1
Режим частоты кадров : Постоянный
Частота кадров : 23,976 (24000/1001) кадра/сек
Цветовое пространство : YUV
Субдискретизация насыщенности : 4:2:0
Битовая глубина : 8 бит
Тип развёртки : Прогрессивная
Бит/(Пиксели*Кадры) : 0.243
Размер потока : 2,59 Гбайт (68%)
Библиотека кодирования : x264 core 148 r2699+6+41 29a38aa Yuuki [8-bit@4:2:0 X86_64][GCC 5.3.0]
Настройки программы : cabac=1 / ref=12 / deblock=1:-3:-3 / analyse=0x3:0x113 / me=umh / subme=11 / psy=1 / fade_compensate=0.00 / psy_rd=1.00:0.05 / mixed_ref=1 / me_range=32 / chroma_me=1 / trellis=2 / 8x8dct=1 / cqm=0 / deadzone=21,11 / fast_pskip=0 / chroma_qp_offset=-2 / threads=4 / lookahead_threads=1 / sliced_threads=0 / nr=0 / decimate=1 / interlaced=0 / bluray_compat=0 / constrained_intra=0 / fgo=0 / bframes=8 / b_pyramid=2 / b_adapt=2 / b_bias=0 / direct=3 / weightb=1 / open_gop=0 / weightp=2 / keyint=250 / keyint_min=23 / scenecut=40 / intra_refresh=0 / rc=crf / mbtree=0 / crf=17.7000 / qcomp=0.60 / qpmin=0:0:0 / qpmax=69:69:69 / qpstep=4 / ip_ratio=1.40 / pb_ratio=1.30 / aq=3:0.90
Язык : English
Default : Да
Forced : Нет

Аудио #1
Идентификатор : 2
Формат : AC-3
Формат/Информация : Audio Coding 3
Идентификатор кодека : A_AC3
Продолжительность : 1 ч. 33 м.
Вид битрейта : Постоянный
Битрейт : 384 Кбит/сек
Каналы : 6 каналов
Расположение каналов : Front: L C R, Side: L R, LFE
Частота : 48,0 КГц
Частота кадров : 31,250 кадров/сек (1536 SPF)
Битовая глубина : 16 бит
Метод сжатия : С потерями
Размер потока : 255 Мбайт (7%)
Заголовок : MVO | iTunes
Язык : Russian
ServiceKind : Complete Main
Default : Да
Forced : Нет

Аудио #2
Идентификатор : 3
Формат : DTS
Формат/Информация : Digital Theater Systems
Идентификатор кодека : A_DTS
Продолжительность : 1 ч. 33 м.
Вид битрейта : Постоянный
Битрейт : 1509 Кбит/сек
Каналы : 6 каналов
Расположение каналов : Front: L C R, Side: L R, LFE
Частота : 48,0 КГц
Частота кадров : 93,750 кадра/сек (512 SPF)
Битовая глубина : 24 бит
Метод сжатия : С потерями
Размер потока : 1004 Мбайт (26%)
Язык : English
Default : Нет
Forced : Нет

Текст #1
Идентификатор : 4
Формат : UTF-8
Идентификатор кодека : S_TEXT/UTF8
Идентификатор кодека/Информация : UTF-8 Plain Text
Продолжительность : 1 ч. 27 м.
Битрейт : 120 бит/сек
ElementCount : 1397
Размер потока : 77,4 Кбайт (0%)
Язык : Russian
Default : Нет
Forced : Нет

Текст #2
Идентификатор : 5
Формат : UTF-8
Идентификатор кодека : S_TEXT/UTF8
Идентификатор кодека/Информация : UTF-8 Plain Text
Продолжительность : 1 ч. 27 м.
Битрейт : 73 бит/сек
ElementCount : 1394
Размер потока : 47,2 Кбайт (0%)
Язык : English
Default : Нет
Forced : Нет

Меню
00:00:00.000 : :Chapter 01
00:08:50.988 : :Chapter 02
00:18:02.915 : :Chapter 03
00:26:29.337 : :Chapter 04
00:38:27.555 : :Chapter 05
00:46:02.426 : :Chapter 06
00:58:10.528 : :Chapter 07
01:10:30.851 : :Chapter 08
01:20:28.657 : :Chapter 09
01:28:20.336 : :Chapter 10



_________________
Проголосуй за трекер Открытый торрент трекер - RUS-MEDIA.ORG

Проголосуй Открытый торрент трекер - RUS-MEDIA.ORG


Вернуться к началу
 Профиль Отправить личное сообщение  
 
   Похожие торренты   Автор   Торрент   Размер 
В этой теме нет новых непрочитанных сообщений. Человек человеку волк / Dog Eat Dog [Триллер, драма, криминал, 2016] BDRip, Mvo [iTunes]

salma3

236 | 32

1.42 ГБ

В этой теме нет новых непрочитанных сообщений. Человек человеку волк / Dog Eat Dog [триллер, драма, криминал, 2016] WEB-DLRip, Mvo

salma3

1979 | 451

1.36 ГБ

В этой теме нет новых непрочитанных сообщений. Человек человеку / Man to Man [Драма, триллер, история, 2005] DVDRip-AVC, Mvo

salma3

178 | 57

2.36 ГБ

В этой теме нет новых непрочитанных сообщений. Человек – швейцарский нож / Swiss Army Man [фэнтези, драма, мелодрама, комедия, приключения, 2016] BDRip 720p, Dub [iTunes]

marya111

844 | 72

4.73 ГБ

В этой теме нет новых непрочитанных сообщений. Расплата / The Accountant (боевик, триллер, драма, криминал, 2016) BDRip 720p от Scarabey | iTunes

marya111

1918 | 518

5.39 ГБ

В этой теме нет новых непрочитанных сообщений. Человек на Кэррион-роуд / The Hollow Point [Криминал, триллер, 2016] BDRip 720p, Avo

salma3

167 | 75

6.07 ГБ

В этой теме нет новых непрочитанных сообщений. Человек человеку / Person to Person [комедия, драма, 2017] WEB-DLRip 720p, Mvo

salma3

128 | 21

2.55 ГБ


Начать новую тему Ответить на тему  [ 1 сообщение ] 




Для Мосгорсуда, Роскомнадзора и рекламодателей:: mosgorsud-torrent[собачка]yandex.ru
cron