Торрент файл
скачать торрент магнет ссылка Добавлен: 11 дек 2017, 23:18
Размер: 5.96 ГБ
Сидеров: 10
Личеров: 5
Статус: (salma3)
Автор

СообщениеДобавлено: 11 дек 2017, 23:18 

Не в сети
Супермодератор
Аватара пользователя
Дата регистрации:
15 фев 2012, 16:44
Возраст: 28
Спасибо: 7165 / 2147
Сообщения: 62442
Год выхода: 2001
Жанр: фэнтези, боевик, триллер
Режиссер: Стивен Соммерс

В ролях: Брендан Фрейзер, Рэйчел Вайс, Джон Ханна, Арнольд, Вослу, Одед Фер, Патрисия Веласкес, Фредди Боат, Алан Армстронг, Дуэйн Джонсон, Адевале Акинойе-Агбаже

О фильме:
Прошло десять лет… Наш отважный герой, искатель приключений Рик О`Конелл, теперь богат, счастливо женат на прекрасной Эвелин и воспитывает своего восьмилетнего сына Алекса. Но злой рок не дает очаровательной семье О`Конеллов насладиться спокойной жизнью. Зловещий жрец Имхотеп снова восстал из мертвых! Теперь у Рика, Эвелин и малютки Алекса есть всего семь дней, чтобы спасти мир…



Страна: США
Продолжительность: 02:09:31
Перевод: Профессиональный [многоголосый]

Файл
Кодек: HEVC x265 10bit
Качество: HD-DVDRip-HEVC 1080p
Видео: 1918x816, 23.976 кадр/сек, 5690 Кбит/сек, (Main 10@L5.1@High) 10bit
Звук:
Аудио1: Русская, AC3 448 Кбит/сек, 6 канала(ов),16bit 48,0 КГц
Аудио2: English, AC3 448 Кбит/сек, 6 канала(ов),16bit 48,0 КГц
Субтитры: Русские, English
Навиигация по главам: Есть

General
Unique ID : 214996032187599753797190447075815832131 (0xA1BEBAC92081380CBBBF9F006477BA43)
Complete name : T:HDFILMSMummy trilogy (1999-2008)The Mummy Returns (2001) HD-DVDRip 1080p [HEVC] 10Bit.mkv
Format : Matroska
Format version : Version 4 / Version 2
File size : 5.96 GiB
Duration : 2 h 9 min
Overall bit rate : 6 588 kb/s
Movie name : rip_by_Cthulhu
Encoded date : UTC 2017-12-11 16:16:38
Writing application : mkvmerge v18.0.0 ('Apricity') 64-bit
Writing library : libebml v1.3.5 + libmatroska v1.4.8
Cover : Yes
Attachments : cover2.jpg

Video
ID : 1
Format : HEVC
Format/Info : High Efficiency Video Coding
Format profile : Main 10@L5.1@High
Codec ID : V_MPEGH/ISO/HEVC
Duration : 2 h 9 min
Bit rate : 5 690 kb/s
Width : 1 918 pixels
Height : 816 pixels
Display aspect ratio : 2.35:1
Frame rate mode : Constant
Frame rate : 23.976 (24000/1001) FPS
Color space : YUV
Chroma subsampling : 4:2:0
Bit depth : 10 bits
Bits/(Pixel*Frame) : 0.152
Stream size : 5.15 GiB (86%)
Writing library : x265 2.6+8-fc0570b8d8f9:[Windows][GCC 7.1.0][64 bit] 10bit
Encoding settings : cpuid=1050111 / frame-threads=5 / numa-pools=4 / wpp / no-pmode / no-pme / no-psnr / no-ssim / log-level=3 / input-csp=1 / input-res=1918x816 / interlace=0 / total-frames=0 / level-idc=51 / high-tier=1 / uhd-bd=0 / ref=4 / no-allow-non-conformance / no-repeat-headers / annexb / no-aud / no-hrd / info / hash=0 / no-temporal-layers / open-gop / min-keyint=23 / keyint=240 / gop-lookahead=0 / bframes=10 / b-adapt=2 / b-pyramid / bframe-bias=0 / rc-lookahead=40 / lookahead-slices=5 / scenecut=40 / no-intra-refresh / ctu=64 / min-cu-size=8 / no-rect / no-amp / max-tu-size=32 / tu-inter-depth=2 / tu-intra-depth=2 / limit-tu=0 / rdoq-level=1 / dynamic-rd=0.00 / no-ssim-rd / signhide / no-tskip / nr-intra=0 / nr-inter=0 / no-constrained-intra / strong-intra-smoothing / max-merge=3 / limit-refs=3 / no-limit-modes / me=3 / subme=7 / merange=64 / temporal-mvp / weightp / weightb / no-analyze-src-pics / deblock=-3:-3 / no-sao / no-sao-non-deblock / rd=3 / no-early-skip / rskip / no-fast-intra / no-tskip-fast / no-cu-lossless / no-b-intra / no-splitrd-skip / rdpenalty=0 / psy-rd=2.00 / psy-rdoq=0.00 / no-rd-refine / analysis-reuse-mode=0 / no-lossless / cbqpoffs=0 / crqpoffs=0 / rc=crf / crf=19.0 / qcomp=0.60 / qpstep=4 / stats-write=0 / stats-read=0 / vbv-maxrate=50000 / vbv-bufsize=35714 / vbv-init=0.9 / crf-max=30.0 / crf-min=0.0 / ipratio=1.40 / pbratio=1.30 / aq-mode=1 / aq-strength=1.00 / cutree / zone-count=0 / no-strict-cbr / qg-size=32 / no-rc-grain / qpmax=69 / qpmin=0 / no-const-vbv / sar=1 / overscan=0 / videoformat=5 / range=0 / colorprim=2 / transfer=2 / colormatrix=2 / chromaloc=0 / display-window=0 / max-cll=0,0 / min-luma=0 / max-luma=1023 / log2-max-poc-lsb=8 / vui-timing-info / vui-hrd-info / slices=1 / no-opt-qp-pps / no-opt-ref-list-length-pps / no-multi-pass-opt-rps / scenecut-bias=0.05 / no-opt-cu-delta-qp / no-aq-motion / no-hdr / no-hdr-opt / no-dhdr10-opt / analysis-reuse-level=5 / scale-factor=0 / refine-intra=0 / refine-inter=0 / refine-mv=0 / no-limit-sao / ctu-info=0 / no-lowpass-dct / refine-mv-type=0 / copy-pic=1
Language : English
Default : Yes
Forced : No
Color range : Full

Audio #1
ID : 2
Format : AC-3
Format/Info : Audio Coding 3
Format settings, Endianness : Big
Codec ID : A_AC3
Duration : 2 h 9 min
Bit rate mode : Constant
Bit rate : 448 kb/s
Channel(s) : 6 channels
Channel positions : Front: L C R, Side: L R, LFE
Sampling rate : 48.0 kHz
Frame rate : 31.250 FPS (1536 SPF)
Bit depth : 16 bits
Compression mode : Lossy
Stream size : 415 MiB (7%)
Title : MVO.BD.CEE
Language : Russian
Service kind : Complete Main
Default : Yes
Forced : No

Audio #2
ID : 3
Format : AC-3
Format/Info : Audio Coding 3
Format settings, Endianness : Big
Codec ID : A_AC3
Duration : 2 h 9 min
Bit rate mode : Constant
Bit rate : 448 kb/s
Channel(s) : 6 channels
Channel positions : Front: L C R, Side: L R, LFE
Sampling rate : 48.0 kHz
Frame rate : 31.250 FPS (1536 SPF)
Bit depth : 16 bits
Compression mode : Lossy
Stream size : 415 MiB (7%)
Language : English
Service kind : Complete Main
Default : No
Forced : No

Text #1
ID : 4
Format : UTF-8
Codec ID : S_TEXT/UTF8
Codec ID/Info : UTF-8 Plain Text
Duration : 2 h 1 min
Bit rate : 57 b/s
Count of elements : 924
Stream size : 51.0 KiB (0%)
Language : Russian
Default : Yes
Forced : No

Text #2
ID : 5
Format : UTF-8
Codec ID : S_TEXT/UTF8
Codec ID/Info : UTF-8 Plain Text
Duration : 2 h 7 min
Bit rate : 32 b/s
Count of elements : 928
Stream size : 30.1 KiB (0%)
Language : English
Default : No
Forced : No

Menu
00:00:00.000 : :Глава 1
00:04:41.489 : :Глава 2
00:10:03.519 : :Глава 3
00:13:33.395 : :Глава 4
00:17:03.897 : :Глава 5
00:23:20.774 : :Глава 6
00:26:17.158 : :Глава 7
00:35:25.248 : :Глава 8
00:42:01.685 : :Глава 9
00:46:51.725 : :Глава 10
00:56:03.151 : :Глава 11
01:06:37.410 : :Глава 12
01:17:00.657 : :Глава 13
01:27:33.665 : :Глава 14
01:35:27.638 : :Глава 15
01:42:44.074 : :Глава 16
01:47:43.790 : :Глава 17
01:51:20.840 : :Глава 18
01:53:26.382 : :Глава 19
02:01:49.176 : :Глава 20
02:09:31.513 : :Глава 21


Релиз от: Cthulhu


_________________
Проголосуй за трекер Открытый торрент трекер - RUS-MEDIA.ORG

Проголосуй Открытый торрент трекер - RUS-MEDIA.ORG


Вернуться к началу
 Профиль Отправить личное сообщение  
 
   Похожие торренты   Автор   Торрент   Размер 
В этой теме нет новых непрочитанных сообщений. Мумия возвращается / The Mummy Returns [фэнтези, боевик, триллер, 2001] HDRip, Dub+Sub

salma3

115 | 27

1.45 ГБ

В этой теме нет новых непрочитанных сообщений. Мумия возвращается / The Mummy Returns [фэнтези, боевик, приключения, 2001] BDRip, Dub

salma3

0 | 0

2.18 ГБ

В этой теме нет новых непрочитанных сообщений. Мумия возвращается / The Mummy Returns [фэнтези, боевик, приключения, 2001] BDRip, Dub

salma3

11 | 2

1.46 ГБ

В этой теме нет новых непрочитанных сообщений. Мумия возвращается / The Mummy Returns [Приключения, ужасы, 2001] BDRemux 2160p, Dub [4K]

salma3

24 | 16

57.74 ГБ

В этой теме нет новых непрочитанных сообщений. Мумия / The Mummy [Фэнтези, боевик, приключения, 1999] HD-DVDRip-HEVC 1080p, Mvo

salma3

15 | 8

5.54 ГБ

В этой теме нет новых непрочитанных сообщений. Мумия: Гробница Императора Драконов / The Mummy: Tomb of the Dragon Emperor [фэнтези, боевик, триллер, 2008] BDRip-HEVC 1080p, Dub [Лицензия]

salma3

17 | 6

5.41 ГБ

В этой теме нет новых непрочитанных сообщений. Мумия / The Mummy [ужасы, фэнтези, боевик, 2017] WEBRip-HEVC, Dub [Line]

salma3

195 | 40

862.79 МБ


Начать новую тему Ответить на тему  [ 1 сообщение ] 




Для Мосгорсуда, Роскомнадзора и рекламодателей:: mosgorsud-torrent[собачка]yandex.ru
cron