Торрент файл
скачать торрент магнет ссылка Добавлен: 11 дек 2017, 23:17
Размер: 5.41 ГБ
Сидеров: 17
Личеров: 6
Статус: (salma3)
Автор

СообщениеДобавлено: 11 дек 2017, 23:17 

Не в сети
Супермодератор
Аватара пользователя
Дата регистрации:
15 фев 2012, 16:44
Возраст: 29
Спасибо: 7328 / 2147
Сообщения: 73700
Год выхода: 2008
Жанр: фэнтези, боевик, триллер
Режиссер: Роб Коэн

В ролях: Брендан Фрейзер, Джет Ли, Мария Белло, Джон Ханна, Мишель Йео, Люк Форд, Изабелла Люн, Энтони Вон, Расселл Вонг, Лиам Каннингэм

О фильме:
Заколдованный волшебницей, безжалостный китайский император-дракон должен провести вечность в забвении. Его 10 000 воинов превратились в терракотовых воинов. Однако когда искатель приключений Алекс О`Коннелл случайно пробуждает властителя от вечной спячки, он вынужден искать помощи у единственных людей, которые знают, как справиться с воскресшими мертвецами: у своих родителей. Монарх возвращается к жизни, и наши герои понимают, что его сила за эту тысячу лет только увеличилась. Мумия готова поднять всю Азию в борьбе за мировое господство… если О`Коннеллы ее не остановят.



Страна: США, Германия
Продолжительность: 01:51:40
Перевод: Профессиональный дублированный

Файл
Кодек: HEVC x265 10bit
Качество: BDRip-HEVC 1080p
Видео: 1920x800, 23.976 кадр/сек, 6041 Кбит/сек, (Main 10@L5.1@High) 10bit
Звук:
Аудио1: Русская, AC3 448 Кбит/сек, 6 канала(ов),16bit 48,0 КГц
Аудио2: English, AC3 448 Кбит/сек, 6 канала(ов),16bit 48,0 КГц
Субтитры: Русские (форсированные, полные), English
Навиигация по главам: Есть

General
Unique ID : 221899915498635065649289700663408629298 (0xA6F05E8356EA0878A3B2AF033BCE9632)
Complete name : T:HDFILMSMummy trilogy (1999-2008)The Mummy. Tomb of the Dragon Emperor (2008) BDRip 1080p [HEVC] 10Bit.mkv
Format : Matroska
Format version : Version 4 / Version 2
File size : 5.41 GiB
Duration : 1 h 51 min
Overall bit rate : 6 940 kb/s
Movie name : rip_by_Cthulhu
Encoded date : UTC 2017-12-11 17:32:23
Writing application : mkvmerge v18.0.0 ('Apricity') 64-bit
Writing library : libebml v1.3.5 + libmatroska v1.4.8
Cover : Yes
Attachments : cover3.jpg

Video
ID : 1
Format : HEVC
Format/Info : High Efficiency Video Coding
Format profile : Main 10@L5.1@High
Codec ID : V_MPEGH/ISO/HEVC
Duration : 1 h 51 min
Bit rate : 6 041 kb/s
Width : 1 920 pixels
Height : 800 pixels
Display aspect ratio : 2.40:1
Frame rate mode : Constant
Frame rate : 23.976 (24000/1001) FPS
Color space : YUV
Chroma subsampling : 4:2:0
Bit depth : 10 bits
Bits/(Pixel*Frame) : 0.164
Stream size : 4.71 GiB (87%)
Writing library : x265 2.6+8-fc0570b8d8f9:[Windows][GCC 7.1.0][64 bit] 10bit
Encoding settings : cpuid=1050111 / frame-threads=5 / numa-pools=4 / wpp / no-pmode / no-pme / no-psnr / no-ssim / log-level=3 / input-csp=1 / input-res=1920x800 / interlace=0 / total-frames=0 / level-idc=51 / high-tier=1 / uhd-bd=0 / ref=4 / no-allow-non-conformance / no-repeat-headers / annexb / no-aud / no-hrd / info / hash=0 / no-temporal-layers / open-gop / min-keyint=23 / keyint=240 / gop-lookahead=0 / bframes=10 / b-adapt=2 / b-pyramid / bframe-bias=0 / rc-lookahead=40 / lookahead-slices=5 / scenecut=40 / no-intra-refresh / ctu=64 / min-cu-size=8 / no-rect / no-amp / max-tu-size=32 / tu-inter-depth=2 / tu-intra-depth=2 / limit-tu=0 / rdoq-level=2 / dynamic-rd=0.00 / no-ssim-rd / signhide / no-tskip / nr-intra=0 / nr-inter=0 / no-constrained-intra / strong-intra-smoothing / max-merge=3 / limit-refs=3 / no-limit-modes / me=2 / subme=6 / merange=57 / temporal-mvp / weightp / weightb / no-analyze-src-pics / deblock=-3:-3 / no-sao / no-sao-non-deblock / rd=3 / no-early-skip / rskip / no-fast-intra / no-tskip-fast / no-cu-lossless / no-b-intra / no-splitrd-skip / rdpenalty=0 / psy-rd=1.00 / psy-rdoq=0.00 / no-rd-refine / analysis-reuse-mode=0 / no-lossless / cbqpoffs=0 / crqpoffs=0 / rc=crf / crf=19.0 / qcomp=0.60 / qpstep=4 / stats-write=0 / stats-read=0 / vbv-maxrate=50000 / vbv-bufsize=35714 / vbv-init=0.9 / crf-max=30.0 / crf-min=0.0 / ipratio=1.40 / pbratio=1.30 / aq-mode=1 / aq-strength=0.90 / cutree / zone-count=0 / no-strict-cbr / qg-size=32 / no-rc-grain / qpmax=69 / qpmin=0 / no-const-vbv / sar=1 / overscan=0 / videoformat=5 / range=0 / colorprim=1 / transfer=1 / colormatrix=1 / chromaloc=0 / display-window=0 / max-cll=0,0 / min-luma=0 / max-luma=1023 / log2-max-poc-lsb=8 / vui-timing-info / vui-hrd-info / slices=1 / no-opt-qp-pps / no-opt-ref-list-length-pps / no-multi-pass-opt-rps / scenecut-bias=0.05 / no-opt-cu-delta-qp / no-aq-motion / no-hdr / no-hdr-opt / no-dhdr10-opt / analysis-reuse-level=5 / scale-factor=0 / refine-intra=0 / refine-inter=0 / refine-mv=0 / no-limit-sao / ctu-info=0 / no-lowpass-dct / refine-mv-type=0 / copy-pic=1
Language : English
Default : Yes
Forced : No
Color range : Limited
Color primaries : BT.709
Transfer characteristics : BT.709
Matrix coefficients : BT.709

Audio #1
ID : 2
Format : AC-3
Format/Info : Audio Coding 3
Format settings, Endianness : Big
Codec ID : A_AC3
Duration : 1 h 51 min
Bit rate mode : Constant
Bit rate : 448 kb/s
Channel(s) : 6 channels
Channel positions : Front: L C R, Side: L R, LFE
Sampling rate : 48.0 kHz
Frame rate : 31.250 FPS (1536 SPF)
Bit depth : 16 bits
Compression mode : Lossy
Stream size : 358 MiB (6%)
Language : Russian
Service kind : Complete Main
Default : Yes
Forced : No

Audio #2
ID : 3
Format : AC-3
Format/Info : Audio Coding 3
Format settings, Endianness : Big
Codec ID : A_AC3
Duration : 1 h 51 min
Bit rate mode : Constant
Bit rate : 448 kb/s
Channel(s) : 6 channels
Channel positions : Front: L C R, Side: L R, LFE
Sampling rate : 48.0 kHz
Frame rate : 31.250 FPS (1536 SPF)
Bit depth : 16 bits
Compression mode : Lossy
Stream size : 358 MiB (6%)
Language : English
Service kind : Complete Main
Default : No
Forced : No

Text #1
ID : 4
Format : UTF-8
Codec ID : S_TEXT/UTF8
Codec ID/Info : UTF-8 Plain Text
Duration : 1 h 38 min
Bit rate : 8 b/s
Count of elements : 131
Stream size : 6.02 KiB (0%)
Title : rus forced
Language : Russian
Default : Yes
Forced : Yes

Text #2
ID : 5
Format : UTF-8
Codec ID : S_TEXT/UTF8
Codec ID/Info : UTF-8 Plain Text
Duration : 1 h 40 min
Bit rate : 73 b/s
Count of elements : 985
Stream size : 54.5 KiB (0%)
Title : rus
Language : Russian
Default : No
Forced : No

Text #3
ID : 6
Format : UTF-8
Codec ID : S_TEXT/UTF8
Codec ID/Info : UTF-8 Plain Text
Duration : 1 h 40 min
Bit rate : 44 b/s
Count of elements : 927
Stream size : 32.5 KiB (0%)
Language : English
Default : No
Forced : No

Menu
00:00:00.000 : :Глава 1
00:05:24.073 : :Глава 2
00:09:52.133 : :Глава 3
00:14:15.479 : :Глава 4
00:19:13.402 : :Глава 5
00:24:33.680 : :Глава 6
00:30:57.647 : :Глава 7
00:35:30.962 : :Глава 8
00:42:16.367 : :Глава 9
00:48:17.686 : :Глава 10
00:52:26.893 : :Глава 11
00:57:28.528 : :Глава 12
01:02:40.590 : :Глава 13
01:09:52.229 : :Глава 14
01:15:54.216 : :Глава 15
01:21:00.981 : :Глава 16
01:25:33.419 : :Глава 17
01:33:54.962 : :Глава 18
01:39:53.946 : :Глава 19
01:41:28.499 : :Глава 20
01:51:40.110 : :Глава 21


Релиз от: Cthulhu


_________________
Проголосуй за трекер Открытый торрент трекер - RUS-MEDIA.ORG

Проголосуй Открытый торрент трекер - RUS-MEDIA.ORG


Вернуться к началу
 Профиль Отправить личное сообщение  
 
   Похожие торренты   Автор   Торрент   Размер 
В этой теме нет новых непрочитанных сообщений. Мумия: Гробница Императора Драконов / Мумия - 3 / The Mummy: Tomb of the Dragon Emperor [ужасы, фэнтези, боевик, 2008] HDRip, Dub+Sub

salma3

284 | 46

1.45 ГБ

В этой теме нет новых непрочитанных сообщений. Мумия: Гробница Императора Драконов / The Mummy: Tomb of the Dragon Emperor [Фэнтези, боевик, триллер, 2008] BDRemux 2160p, Dub [4K]

salma3

0 | 0

55.83 ГБ

В этой теме нет новых непрочитанных сообщений. Мумия: Гробница Императора Драконов / The Mummy: Tomb of the Dragon Emperor [фэнтези, боевик, триллер, 2008] HDTVRip, Dub [Open Matte]

salma3

13 | 12

1.45 ГБ

В этой теме нет новых непрочитанных сообщений. Мумия: Гробница Императора Драконов / The Mummy: Tomb of the Dragon Emperor [фэнтези, боевик, приключения, 2008] WEB-DLRip-AVC, Dub [Open Matte]

salma3

52 | 10

2.14 ГБ

В этой теме нет новых непрочитанных сообщений. Гробница мумии / The Mummy's Tomb [Ужасы, боевик, триллер, 1942] BDRip 1080p, Avo

salma3

0 | 0

4.45 ГБ

В этой теме нет новых непрочитанных сообщений. Мумия возвращается / The Mummy Returns [фэнтези, боевик, триллер, 2001] HD-DVDRip-HEVC 1080p, Mvo

salma3

10 | 5

5.96 ГБ

В этой теме нет новых непрочитанных сообщений. Мумия / The Mummy [Фэнтези, боевик, приключения, 1999] HD-DVDRip-HEVC 1080p, Mvo

salma3

15 | 8

5.54 ГБ


Начать новую тему Ответить на тему  [ 1 сообщение ] 




Для Мосгорсуда, Роскомнадзора и рекламодателей:: mosgorsud-torrent[собачка]yandex.ru
cron