Торрент файл
скачать торрент магнет ссылка Добавлен: 09 дек 2017, 17:15
Размер: 5.24 ГБ
Сидеров: 38
Личеров: 3
Статус: (salma3)
Автор

СообщениеДобавлено: 09 дек 2017, 17:15 

Не в сети
Супермодератор
Аватара пользователя
Дата регистрации:
15 фев 2012, 16:44
Возраст: 28
Спасибо: 7223 / 2147
Сообщения: 67788
Год выхода: 2015
Жанр: фантастика, боевик, приключения
Режиссер: Джосс Уидон

В ролях: Роберт Дауни мл. , Крис Хемсворт , Крис Эванс , Скарлетт Йоханссон , Марк Руффало , Джереми Реннер , Аарон Тейлор-Джонсон , Элизабет Олсен , Джеймс Спэйдер , Сэмюэл Л. Джексон , Коби Смолдерс , Пол Беттани

О фильме:
Человечество на грани уничтожения. На этот раз людям угрожает Альтрон - искусственный интеллект, ранее созданный для того, чтобы защищать Землю от любых угроз. Однако, главной угрозой он посчитал человечество. Международная организация Щ. И. Т. распалась, и теперь мир не способен справиться с таким мощным врагом, потому люди вновь обращаются за помощью к Величайшим Героям Земли - Мстителям. Однако Альтрон слишком силен, и есть большая вероятность, что даже им не удастся остановить начало надвигающейся Эры Альтрона, где нет места для людей...



Страна: США
Продолжительность: 02:21:18
Перевод: Профессиональный (дублированный) [Blu ray], Авторский одноголосый

Файл
Кодек: HEVC x265 10 bit
Качество: BDRip-HEVC 1080p
Видео: 1920x804 (2.40:1), 3962 Кбит/сек, 0.107 бит/(Пиксели*Кадры), 23,976 кадр/сек (24000/1001), HEVC (Main10@L.4.1@High) 10 бит
Звук:
Русская, AC3, 448 Кбит/сек, Front: L C R, Side: L R, LFE, 48,0 КГц (Дубляж)
Русская, AC3, 448 Кбит/сек, Front: L C R, Side: L R, LFE, 48,0 КГц (AVO Гаврилов)
Английская, AC3, 448 Кбит/сек, Front: L C R, Side: L R, LFE, 48,0 КГц (Оригинал)
Субтитры: русские (форсированные, полные)
Разделение по главам: есть

Семпл
General
Unique ID : 201704331231870943972705841608707884284 (0x97BED7552941CC74862278A9EFC944FC)
Complete name : I:HEVC 210 BITAvengers_Age of Ultron_2015_BDRip_1080p_[HEVC]_10bit.mkv
Format : Matroska
Format version : Version 4 / Version 2
File size : 5.24 GiB
Duration : 2 h 21 min
Overall bit rate : 5 309 kb/s
Encoded date : UTC 2017-12-09 12:49:41
Writing application : mkvmerge v9.9.0 ('Pick Up') 64bit
Writing library : libebml v1.3.4 + libmatroska v1.4.5
Cover : Yes
Attachments : cover.png

Video
ID : 1
Format : HEVC
Format/Info : High Efficiency Video Coding
Format profile : Main 10@L4.1@High
Codec ID : V_MPEGH/ISO/HEVC
Duration : 2 h 21 min
Bit rate : 3 962 kb/s
Width : 1 920 pixels
Height : 804 pixels
Display aspect ratio : 2.40:1
Frame rate mode : Constant
Frame rate : 23.976 (24000/1001) FPS
Color space : YUV
Chroma subsampling : 4:2:0
Bit depth : 10 bits
Bits/(Pixel*Frame) : 0.107
Stream size : 3.91 GiB (75%)
Writing library : x265 2.5+14-2718cb5dd67f:[Windows][GCC 7.1.0][64 bit] 10bit
Encoding settings : cpuid=1173503 / frame-threads=4 / numa-pools=16 / wpp / no-pmode / no-pme / no-psnr / no-ssim / log-level=2 / input-csp=1 / input-res=1920x804 / interlace=0 / total-frames=0 / level-idc=41 / high-tier=1 / uhd-bd=0 / ref=4 / no-allow-non-conformance / no-repeat-headers / annexb / no-aud / no-hrd / info / hash=0 / no-temporal-layers / open-gop / min-keyint=23 / keyint=250 / bframes=4 / b-adapt=2 / b-pyramid / bframe-bias=0 / rc-lookahead=20 / lookahead-slices=5 / scenecut=40 / no-intra-refresh / ctu=64 / min-cu-size=8 / no-rect / no-amp / max-tu-size=32 / tu-inter-depth=2 / tu-intra-depth=2 / limit-tu=0 / rdoq-level=1 / dynamic-rd=0.00 / no-ssim-rd / signhide / no-tskip / nr-intra=0 / nr-inter=0 / no-constrained-intra / no-strong-intra-smoothing / max-merge=2 / limit-refs=3 / no-limit-modes / me=3 / subme=3 / merange=57 / temporal-mvp / weightp / no-weightb / no-analyze-src-pics / deblock=-3:-3 / no-sao / no-sao-non-deblock / rd=4 / no-early-skip / rskip / no-fast-intra / no-tskip-fast / no-cu-lossless / no-b-intra / no-splitrd-skip / rdpenalty=0 / psy-rd=2.00 / psy-rdoq=0.00 / no-rd-refine / analysis-reuse-mode=0 / no-lossless / cbqpoffs=0 / crqpoffs=0 / rc=crf / crf=18.0 / qcomp=0.60 / qpstep=4 / stats-write=0 / stats-read=0 / vbv-maxrate=50000 / vbv-bufsize=50000 / vbv-init=0.9 / crf-max=0.0 / crf-min=0.0 / ipratio=1.40 / pbratio=1.30 / aq-mode=1 / aq-strength=0.90 / cutree / zone-count=1 / zones: / start-frame=192086 / end-frame=203287 / qp=35 / no-strict-cbr / qg-size=32 / no-rc-grain / qpmax=69 / qpmin=0 / no-const-vbv / sar=0 / overscan=0 / videoformat=5 / range=0 / colorprim=2 / transfer=2 / colormatrix=1 / chromaloc=0 / display-window=0 / max-cll=0,0 / min-luma=0 / max-luma=1023 / log2-max-poc-lsb=8 / vui-timing-info / vui-hrd-info / slices=1 / opt-qp-pps / opt-ref-list-length-pps / no-multi-pass-opt-rps / scenecut-bias=0.05 / no-opt-cu-delta-qp / no-aq-motion / no-hdr / no-hdr-opt / no-dhdr10-opt / analysis-reuse-level=5 / scale-factor=0 / refine-intra=0 / refine-inter=0 / refine-mv=0 / no-limit-sao / ctu-info=0
Default : Yes
Forced : Yes
Color range : Limited
Matrix coefficients : BT.709

Audio #1
ID : 2
Format : AC-3
Format/Info : Audio Coding 3
Format settings, Endianness : Big
Codec ID : A_AC3
Duration : 2 h 21 min
Bit rate mode : Constant
Bit rate : 448 kb/s
Channel(s) : 6 channels
Channel positions : Front: L C R, Side: L R, LFE
Sampling rate : 48.0 kHz
Frame rate : 31.250 FPS (1536 SPF)
Bit depth : 16 bits
Compression mode : Lossy
Stream size : 453 MiB (8%)
Title : Дубляж
Language : Russian
Service kind : Complete Main
Default : Yes
Forced : No

Audio #2
ID : 3
Format : AC-3
Format/Info : Audio Coding 3
Format settings, Endianness : Big
Codec ID : A_AC3
Duration : 2 h 21 min
Bit rate mode : Constant
Bit rate : 448 kb/s
Channel(s) : 6 channels
Channel positions : Front: L C R, Side: L R, LFE
Sampling rate : 48.0 kHz
Frame rate : 31.250 FPS (1536 SPF)
Bit depth : 16 bits
Compression mode : Lossy
Stream size : 453 MiB (8%)
Title : AVO Гаврилов
Language : Russian
Service kind : Complete Main
Default : No
Forced : No

Audio #3
ID : 4
Format : AC-3
Format/Info : Audio Coding 3
Format settings, Endianness : Big
Codec ID : A_AC3
Duration : 2 h 21 min
Bit rate mode : Constant
Bit rate : 448 kb/s
Channel(s) : 6 channels
Channel positions : Front: L C R, Side: L R, LFE
Sampling rate : 48.0 kHz
Frame rate : 31.250 FPS (1536 SPF)
Bit depth : 16 bits
Compression mode : Lossy
Stream size : 453 MiB (8%)
Title : Оригинал
Language : English
Service kind : Complete Main
Default : No
Forced : No

Text #1
ID : 5
Format : UTF-8
Codec ID : S_TEXT/UTF8
Codec ID/Info : UTF-8 Plain Text
Duration : 2 h 18 min
Bit rate : 0 b/s
Count of elements : 9
Stream size : 565 Bytes (0%)
Title : Rus Forced
Language : Russian
Default : Yes
Forced : No

Text #2
ID : 6
Format : UTF-8
Codec ID : S_TEXT/UTF8
Codec ID/Info : UTF-8 Plain Text
Duration : 2 h 20 min
Bit rate : 84 b/s
Count of elements : 1881
Stream size : 86.9 KiB (0%)
Title : Rus Full
Language : Russian
Default : No
Forced : No

Menu
00:00:00.000 : :Chapter 01
00:12:15.192 : :Chapter 02
00:21:23.948 : :Chapter 03
00:33:01.769 : :Chapter 04
00:36:07.622 : :Chapter 05
00:42:00.768 : :Chapter 06
00:52:44.743 : :Chapter 07
00:59:01.871 : :Chapter 08
01:15:51.086 : :Chapter 09
01:27:08.595 : :Chapter 10
01:36:44.755 : :Chapter 11
01:54:35.325 : :Chapter 12
02:06:27.578 : :Chapter 13
02:11:08.024 : :Chapter 14


Релиз от: от XuMuK


_________________
Проголосуй за трекер Открытый торрент трекер - RUS-MEDIA.ORG

Проголосуй Открытый торрент трекер - RUS-MEDIA.ORG


Вернуться к началу
 Профиль Отправить личное сообщение  
 
   Похожие торренты   Автор   Торрент   Размер 
В этой теме нет новых непрочитанных сообщений. Мстители: Эра Альтрона / Avengers: Age of Ultron (Джосс Уидон) [фантастика, боевик, триллер, приключения, 2015] BDRip 1080p, Dub [3D-Video / iTunes]

Dracon

31 | 2

14.17 ГБ

В этой теме нет новых непрочитанных сообщений. Мстители: Эра Альтрона / Avengers: Age of Ultron (Джосс Уидон) [фантастика, боевик, триллер, приключения, 2015] BDRip 1080p, Dub+Sub [3D-Video / iTunes]

Dracon

1015 | 31

11.74 ГБ

В этой теме нет новых непрочитанных сообщений. Мстители: Эра Альтрона / Avengers: Age of Ultron (Джосс Уидон) [2015, Фантастика, боевик, триллер, приключения, BD-Remux 1080p] [DD5.1] [Dub Rus, Ukr]+[Eng]+[Sub Rus, Eng]

Враг Нароода

2 | 0

25.55 ГБ

В этой теме нет новых непрочитанных сообщений. Мстители: Эра Альтрона / Avengers: Age of Ultron (Джосс Уидон) [фантастика, боевик, триллер, приключения, 2015] BDRip-AVC, Dub+Sub [Лицензия]

Dracon

27 | 0

4.04 ГБ

В этой теме нет новых непрочитанных сообщений. Мстители: Эра Альтрона / Avengers: Age of Ultron (Джосс Уидон) [фантастика, боевик, триллер, приключения, 2015] Blu-Ray Remux 1080p, Dub+Sub [iTunes]

Dracon

0 | 9

34.13 ГБ

В этой теме нет новых непрочитанных сообщений. Мстители: Эра Альтрона / Avengers: Age of Ultron (Джосс Уидон) [фантастика, боевик, триллер, приключения, 2015] Blu-Ray CEE, Dub+Sub [Лицензия]

Dracon

200 | 66

39.22 ГБ

В этой теме нет новых непрочитанных сообщений. Мстители: Эра Альтрона / Avengers: Age of Ultron (Джосс Уидон) [фантастика, боевик, триллер, приключения, 2015] DVD5, Dub+Sub [Лицензия]

Dracon

327 | 49

4.37 ГБ


Начать новую тему Ответить на тему  [ 1 сообщение ] 




Для Мосгорсуда, Роскомнадзора и рекламодателей:: mosgorsud-torrent[собачка]yandex.ru
cron