Торрент файл
скачать торрент магнет ссылка Добавлен: 05 дек 2017, 22:02
Размер: 4.28 ГБ
Сидеров: 11
Личеров: 2
Статус: (salma3)
Автор

СообщениеДобавлено: 05 дек 2017, 22:02 

Не в сети
Супермодератор
Аватара пользователя
Дата регистрации:
15 фев 2012, 16:44
Возраст: 29
Спасибо: 7328 / 2147
Сообщения: 73502
Год выхода: 1971
Жанр: боевик, триллер, криминал
Режиссер: Дон Сигел

В ролях:
Клинт Иствуд — «Грязный Гарри» Каллахан, Эндрю Робинсон — Скорпион, Гарри Гардино — лейтенант Эл Бресслер, Рени Сантони — инспектор Чико Гонсалес, Джон Вернон — мэр Сан-Франциско, Джон Ларч — начальник полиции, Джон Митчум — Фрэнк Ди Джорджио, Вудроу Парфри — Яффе.

О фильме:
На улицах Сан-Франциско стало небезопасно, в городе объявился опасный маньяк по прозвищу Скорпион, требующий от мэра откуп в сто тысяч долларов. Своих жертв Скорпион выбирает произвольным образом и убивает их с безопасного расстояния при помощи снайперской винтовки, поэтому изловить психопата крайне сложно. Но раз за его поиски взялся инспектор Гарри Каллахан, будьте спокойны, чего бы это ему ни стоило, он достанет негодяя хоть из-под земли...



Страна: США
Студия: Warner Bros. Pictures, The Malpaso Company
Продолжительность: 01:42:30
Перевод: Профессиональный многоголосый, Авторский одноголосый, Оригинал

Файл
Кодек: x264
Качество: BDRip 720p
Видео: 1280x532 (2,40:1), 23.976 fps, 4500 kbps
Звук:
Аудио #1: AC3, 384 Kbps, 48.0 KHz, 6 ch (Rus) Профессиональный многоголосый, DVD Magic
Аудио #2: AC3, 192 Kbps, 48.0 KHz, 2 ch (Rus) Авторский одноголосый, А.Гаврилов
Аудио #3: AC3, 448 Kbps, 48.0 KHz, 6 ch (Rus) Авторский одноголосый, М.Яроцкий
Аудио #4: AC3, 448 Kbps, 48.0 KHz, 6 ch (Eng) Оригинал
Субтитры: Русские, Английские





Format : Matroska
Format version : Version 2
File size : 4,28 Гбайт
Duration : 1 ч. 42 м.
Overall bit rate : 5972 Кбит/сек
Encoded date : UTC 2017-05-09 13:06:30
Writing application : mkvmerge v5.4.0 ('Piper') built on Mar 10 2012 13:34:39
Writing library : libebml v1.2.3 + libmatroska v1.3.0

Видео
ID : 1
Format : AVC
Format/Info : Advanced Video Codec
Format profile : High@L4.1
Format settings : CABAC / 9 Ref Frames
Format settings, CABAC : Да
Format settings, RefFrames : 9 кадров
Muxing mode : Header stripping
Codec ID : V_MPEG4/ISO/AVC
Duration : 1 ч. 42 м.
Bit rate : 4500 Кбит/сек
Width : 1280 пикселей
Height : 532 пикселя
Display aspect ratio : 2,40:1
Frame rate mode : Постоянный
Frame rate : 23,976 (24000/1001) кадра/сек
Color space : YUV
Chroma subsampling : 4:2:0
Bit depth : 8 бит
Scan type : Прогрессивная
Bits/(Pixel*Frame) : 0.276
Stream size : 3,14 Гбайт (73%)
Title : Dirty Harry / Грязный Гарри (1971)
Writing library : x264 core 130 r2273 b3065e6
Encoding settings : cabac=1 / ref=9 / deblock=1:-2:-2 / analyse=0x3:0x133 / me=umh / subme=11 / psy=1 / psy_rd=1.00:0.20 / mixed_ref=1 / me_range=48 / chroma_me=1 / trellis=2 / 8x8dct=1 / cqm=0 / deadzone=21,11 / fast_pskip=0 / chroma_qp_offset=-3 / threads=3 / lookahead_threads=1 / sliced_threads=0 / nr=0 / decimate=0 / interlaced=0 / bluray_compat=0 / constrained_intra=0 / bframes=8 / b_pyramid=2 / b_adapt=2 / b_bias=0 / direct=3 / weightb=1 / open_gop=0 / weightp=2 / keyint=240 / keyint_min=23 / scenecut=40 / intra_refresh=0 / rc=2pass / mbtree=0 / bitrate=4500 / ratetol=1.0 / qcomp=0.60 / qpmin=0 / qpmax=69 / qpstep=4 / cplxblur=20.0 / qblur=0.5 / ip_ratio=1.40 / pb_ratio=1.30 / aq=1:1.00
Language : English
Default : Да
Forced : Нет

Аудио #1
ID : 2
Format : AC-3
Format/Info : Audio Coding 3
Muxing mode : Header stripping
Codec ID : A_AC3
Duration : 1 ч. 42 м.
Bit rate mode : Постоянный
Bit rate : 384 Кбит/сек
Channel(s) : 6 каналов
Channel positions : Front: L C R, Side: L R, LFE
Sampling rate : 48,0 КГц
Frame rate : 31,250 кадров/сек (1536 SPF)
Bit depth : 16 бит
Compression mode : С потерями
Stream size : 282 Мбайт (6%)
Title : MVO (Russian) DVD Magic
Language : Russian
Service kind : Complete Main
Default : Да
Forced : Нет

Аудио #2
ID : 3
Format : AC-3
Format/Info : Audio Coding 3
Muxing mode : Header stripping
Codec ID : A_AC3
Duration : 1 ч. 42 м.
Bit rate mode : Постоянный
Bit rate : 192 Кбит/сек
Channel(s) : 2 канала
Channel positions : Front: L R
Sampling rate : 48,0 КГц
Frame rate : 31,250 кадров/сек (1536 SPF)
Bit depth : 16 бит
Compression mode : С потерями
Stream size : 141 Мбайт (3%)
Title : AVO (А.Гаврилов)
Language : Russian
Service kind : Complete Main
Default : Нет
Forced : Нет

Аудио #3
ID : 4
Format : AC-3
Format/Info : Audio Coding 3
Muxing mode : Header stripping
Codec ID : A_AC3
Duration : 1 ч. 42 м.
Bit rate mode : Постоянный
Bit rate : 448 Кбит/сек
Channel(s) : 6 каналов
Channel positions : Front: L C R, Side: L R, LFE
Sampling rate : 48,0 КГц
Frame rate : 31,250 кадров/сек (1536 SPF)
Bit depth : 16 бит
Compression mode : С потерями
Stream size : 328 Мбайт (8%)
Title : AVO (М.Яроцкий)
Language : Russian
Service kind : Complete Main
Default : Нет
Forced : Нет

Аудио #4
ID : 5
Format : AC-3
Format/Info : Audio Coding 3
Muxing mode : Header stripping
Codec ID : A_AC3
Duration : 1 ч. 42 м.
Bit rate mode : Постоянный
Bit rate : 448 Кбит/сек
Channel(s) : 6 каналов
Channel positions : Front: L C R, Side: L R, LFE
Sampling rate : 48,0 КГц
Frame rate : 31,250 кадров/сек (1536 SPF)
Bit depth : 16 бит
Compression mode : С потерями
Stream size : 328 Мбайт (8%)
Title : Original (English)
Language : English
Service kind : Complete Main
Default : Нет
Forced : Нет

Текст #1
ID : 6
Format : UTF-8
Codec ID : S_TEXT/UTF8
Codec ID/Info : UTF-8 Plain Text
Title : Rus
Language : Russian
Default : Нет
Forced : Нет

Текст #2
ID : 7
Format : UTF-8
Codec ID : S_TEXT/UTF8
Codec ID/Info : UTF-8 Plain Text
Title : Eng
Language : English
Default : Нет
Forced : Нет

Меню
00:00:00.000 : ru:1 глава
00:10:00.000 : ru:2 глава
00:20:00.000 : ru:3 глава
00:30:00.000 : ru:4 глава
00:40:00.000 : ru:5 глава
00:50:00.000 : ru:6 глава
01:00:00.000 : ru:7 глава
01:10:00.000 : ru:8 глава
01:20:00.000 : ru:9 глава
01:30:00.000 : ru:10 глава



ЦитатаКто-то писал:
Автор рипа: Painter.
[*]Перевод М.Яроцкого доступен благодаря: Roy 33, ZeDOK, sa1992, будулайроманов, napaHouk, Start.Point, shagrath88, 1woody1, Drowse Reloaded, red1905. Работа со звуком Переводман.


_________________
Проголосуй за трекер Открытый торрент трекер - RUS-MEDIA.ORG

Проголосуй Открытый торрент трекер - RUS-MEDIA.ORG


Вернуться к началу
 Профиль Отправить личное сообщение  
 
   Похожие торренты   Автор   Торрент   Размер 
В этой теме нет новых непрочитанных сообщений. Грязный Гарри 5: Игра в смерть / Dirty Harry 5: The Dead Pool [Боевик, триллер, криминал, 1988] BDRip 720p, Dub

salma3

0 | 0

6.03 ГБ

В этой теме нет новых непрочитанных сообщений. Грязный Гарри 5: Игра в смерть / The Dead Pool [боевик, триллер, криминал, 1988] BDRip 1080p, Dub

salma3

25 | 6

9.87 ГБ

В этой теме нет новых непрочитанных сообщений. Грязный маленький секрет / Dirty Little Secret [триллер, криминал, 1998] VHSRip, Dvo

salma3

2 | 6

1.46 ГБ

В этой теме нет новых непрочитанных сообщений. Кто такой Гарри Крамб? / Who's Harry Crumb? [комедия, криминал, детектив, 1989] WEB-DL 1080p, Mvo+Dvo+Avo+Sub

salma3

0 | 0

3.73 ГБ

В этой теме нет новых непрочитанных сообщений. Гарри и Уолтер едут в Нью-Йорк / Harry and Walter Go to New York [комедия, криминал, 1976] DVDRip, Mvo

salma3

215 | 44

1.47 ГБ

В этой теме нет новых непрочитанных сообщений. Гарри и Уолтер едут в Нью-Йорк / Harry and Walter Go to New York [комедия, криминал, 1976] HDRip, Mvo

salma3

1 | 1

1.45 ГБ

В этой теме нет новых непрочитанных сообщений. Гарри Поттер и философский камень / Harry Potter and the Sorcerer's Stone [Фэнтези, Приключения, Семейный, 2001] BDRip-HEVC 2160p, Dub

salma3

17 | 1

7.3 ГБ


Начать новую тему Ответить на тему  [ 1 сообщение ] 




Для Мосгорсуда, Роскомнадзора и рекламодателей:: mosgorsud-torrent[собачка]yandex.ru
cron